Cкачать бесплатно фильмы.
Поиск фильмов
Log Pass забыли?
  Бесплатные фильмы
Скачать Расписали на толпу - Emma Butt (Obscene Gangbang Sluts)
КатегорияЖёсткое / Анал / Оргия / Груди
Похожие фильмы



Похожие онлайн фильмы
Постер фильма Расписали на толпу - Emma Butt (Obscene Gangbang Sluts)
Расписали на толпу - Emma Butt (Obscene Gangbang Sluts)

Обзор



Шалаву ебут толпой гопники

http://thumbnails115.imagebam.com/50470/ca5045504695062.jpg http://thumbnails116.imagebam.com/50470/e2447d504695063.jpg http://thumbnails116.imagebam.com/50470/30109c504695064.jpg http://thumbnails116.imagebam.com/50470/0afd55504695066.jpg http://thumbnails115.imagebam.com/50470/a7126e504695068.jpg http://thumbnails116.imagebam.com/50470/cad54f504695069.jpg http://thumbnails116.imagebam.com/50470/b6e209504695070.jpg http://thumbnails116.imagebam.com/50470/127839504695071.jpg

General
Complete name                  : C:UsersUserDownloadsAvsPhelpEmma Butt (Obscene Gangbang Sluts).mp4
Format                         : MPEG-4
Format profile                 : Base Media / Version 2
Codec ID                       : mp42
File size                      : 101 MiB
Duration                       : 21mn 0s
Overall bit rate mode          : Variable
Overall bit rate               : 671 Kbps
Writing application            : HandBrake 6599svn 2014121301

Video
ID                             : 1
Format                         : AVC
Format/Info                    : Advanced Video Codec
Format profile                 : High@L3.0
Format settings, CABAC         : Yes
Format settings, ReFrames      : 4 frames
Codec ID                       : avc1
Codec ID/Info                  : Advanced Video Coding
Duration                       : 21mn 0s
Bit rate                       : 569 Kbps
Width                          : 640 pixels
Height                         : 360 pixels
Display aspect ratio           : 16:9
Frame rate mode                : Constant
Frame rate                     : 30.000 fps
Color space                    : YUV
Chroma subsampling             : 4:2:0
Bit depth                      : 8 bits
Scan type                      : Progressive
Bits/(Pixel*Frame)             : 0.082
Stream size                    : 85.5 MiB (85%)
Writing library                : x264 core 142 r2389 956c8d8
Encoding settings              : cabac=1 / ref=3 / deblock=1:0:0 / analyse=0x3:0x113 / me=hex / subme=7 / psy=1 / psy_rd=1.00:0.00 / mixed_ref=1 / me_range=16 / chroma_me=1 / trellis=1 / 8x8dct=1 / cqm=0 / deadzone=21,11 / fast_pskip=1 / chroma_qp_offset=-2 / threads=1 / lookahead_threads=1 / sliced_threads=0 / nr=0 / decimate=1 / interlaced=0 / bluray_compat=0 / constrained_intra=0 / bframes=3 / b_pyramid=2 / b_adapt=1 / b_bias=0 / direct=1 / weightb=1 / open_gop=0 / weightp=2 / keyint=60 / keyint_min=30 / scenecut=40 / intra_refresh=0 / rc_lookahead=40 / rc=crf / mbtree=1 / crf=21.0 / qcomp=0.60 / qpmin=0 / qpmax=69 / qpstep=4 / vbv_maxrate=600 / vbv_bufsize=1800 / crf_max=0.0 / nal_hrd=none / filler=0 / ip_ratio=1.40 / aq=1:1.00
Color primaries                : BT.601 PAL
Transfer characteristics       : BT.709
Matrix coefficients            : BT.601
Color range                    : Limited

Audio
ID                             : 2
Format                         : AAC
Format/Info                    : Advanced Audio Codec
Format profile                 : LC
Codec ID                       : 40
Duration                       : 20mn 59s
Bit rate mode                  : Variable
Bit rate                       : 96.0 Kbps
Channel(s)                     : 2 channels
Channel positions              : Front: L R
Sampling rate                  : 44.1 KHz
Compression mode               : Lossy
Stream size                    : 14.5 MiB (14%)
Title                          : Stereo / Stereo

Размер100.85 MB (105,753,275 байт)
Скачать Расписали на толпу - Emma Butt (Obscene Gangbang Sluts)

:: ОТЗЫВЫ


button_offline Отзыв от Papachka_Elf
avatar 393629

;-) ;-) ;-) ;-) ;-) ;-) ;-)

РЕГИСТРАЦИЯ.

Смотрите бесплатное порно или эротику

footerLeft
Информация для правообладателей На ёгли вы скачаете порно, бесплатные фильмы, а также новинки кино. Все это бесплатно и без смс.