Cкачать бесплатно фильмы.
Поиск фильмов
Log Pass забыли?
  Бесплатные фильмы
Скачать Расплата , The Debt [x264] [2010 | BDRip]
КатегорияТриллер / Драма
Похожие фильмы



Похожие онлайн фильмы
Постер фильма Расплата , The Debt [x264] [2010 | BDRip]
Расплата , The Debt [x264] [2010 | BDRip]

Трэйлер


Jeig5Re7GEY&feature=player_embedded

Обзор



Название: Расплата
Оригинальное название: The Debt
Год выхода: 2010
Cтрана: США
Режиссер: Джон Мэдден
Cценарий: Мэттью Вон, Джейн Голдман, Питер Строхан
В ролях: Хелен Миррен, Сэм Уортингтон, Джессика Честейн, Киаран Хайндс, Том Уилкинсон, Мартон Чокаш, Еспер Кристенсен, Адар Бек, Ницан Шаррон, Роми Абулафиа
Продолжительность: 01:53:28
Язык: Русский Профессиональный (Полное дублирование)

О фильме:

«Расплата / The Debt»

В фильме рассказывается о трёх молодых агентах «Моссада» на секретном задании, которые в 1965 году похищают и убивают известного нацистского преступника. Тридцать лет спустя на Украине объявляется человек, обвинённый в нацизме, и одному из бывших агентов приходится вернуться к своей деятельности, чтобы докопаться до правды.

http://zamolxismd.org/m/iceimg.com/i/f6/fd/1635ba9529.pnghttp://zamolxismd.org/m/iceimg.com/i/f9/bf/2d566d89d1.png
http://zamolxismd.org/m/iceimg.com/i/62/d7/4fc891f55c.pnghttp://zamolxismd.org/m/iceimg.com/i/82/12/5d32726d0d.png
http://zamolxismd.org/m/iceimg.com/i/f2/71/59dc9c2721.png

MediaInfo писал

mplete name                            : D:MoviesRasplata.2010.x264.BDRip.mkv
Format                                   : Matroska
Format version                           : Version 2
File size                                : 2.05 GiB
Duration                                 : 1h 53mn
Overall bit rate                         : 2 583 Kbps
Encoded date                             : UTC 2012-01-27 20:18:18
Writing application                      : mkvmerge v4.9.1 ('Ich will') built on Jul 11 2011 23:53:15
Writing library                          : libebml v1.2.1 + libmatroska v1.1.1

Video
ID                                       : 1
Format                                   : AVC
Format/Info                              : Advanced Video Codec
Format profile                           : High@L4.1
Format settings, CABAC                   : Yes
Format settings, ReFrames                : 12 frames
Codec ID                                 : V_MPEG4/ISO/AVC
Duration                                 : 1h 53mn
Bit rate                                 : 1 814 Kbps
Width                                    : 720 pixels
Height                                   : 304 pixels
Display aspect ratio                     : 2.35:1
Frame rate                               : 23.976 fps
Color space                              : YUV
Chroma subsampling                       : 4:2:0
Bit depth                                : 8 bits
Scan type                                : Progressive
Bits/(Pixel*Frame)                       : 0.346
Stream size                              : 1.40 GiB (68%)
Writing library                          : x264 core 116 r2074 2641b9e
Encoding settings                        : cabac=1 / ref=12 / deblock=1:-3:-3 / analyse=0x3:0x113 /
me=umh / subme=7 / psy=1 / psy_rd=1.05:0.10 / mixed_ref=1 / me_range=16 / chroma_me=1 /
trellis=1 / 8x8dct=1 / cqm=0 / deadzone=21,11 / fast_pskip=1 / chroma_qp_offset=-3 / threads=12 /
sliced_threads=0 / nr=0 / decimate=1 / interlaced=0 / bluray_compat=0 / constrained_intra=0 /
bframes=7 / b_pyramid=2 / b_adapt=2 / b_bias=0 / direct=2 / weightb=1 / open_gop=0 / weightp=2 /
keyint=250 / keyint_min=23 / scenecut=40 / intra_refresh=0 / rc_lookahead=40 / rc=2pass / mbtree=1 /
bitrate=1814 / ratetol=1.0 / qcomp=0.60 / qpmin=10 / qpmax=69 / qpstep=4 / cplxblur=20.0 / qblur=0.5
/ vbv_maxrate=40000 / vbv_bufsize=30000 / nal_hrd=none / ip_ratio=1.40 / aq=1:1.00
Language                                 : English
Default                                  : Yes
Forced                                   : No

Audio #1
ID                                       : 2
Format                                   : AC-3
Format/Info                              : Audio Coding 3
Mode extension                           : CM (complete main)
Codec ID                                 : A_AC3
Duration                                 : 1h 53mn
Bit rate mode                            : Constant
Bit rate                                 : 384 Kbps
Channel(s)                               : 6 channels
Channel positions                        : Front: L C R, Side: L R, LFE
Sampling rate                            : 48.0 KHz
Bit depth                                : 16 bits
Compression mode                         : Lossy
Stream size                              : 312 MiB (15%)
Language                                 : Russian
Default                                  : Yes
Forced                                   : No

Audio #2
ID                                       : 3
Format                                   : AC-3
Format/Info                              : Audio Coding 3
Mode extension                           : CM (complete main)
Codec ID                                 : A_AC3
Duration                                 : 1h 53mn
Bit rate mode                            : Constant
Bit rate                                 : 384 Kbps
Channel(s)                               : 6 channels
Channel positions                        : Front: L C R, Side: L R, LFE
Sampling rate                            : 48.0 KHz
Bit depth                                : 16 bits
Compression mode                         : Lossy
Stream size                              : 312 MiB (15%)
Language                                 : English
Default                                  : No
Forced                                   : No



ФАЙЛ
Качество: BDRip
Видео: AVC, 720x304 (2.35:1), 23.976 fps, 1 814 Kbps (0.346 bit/pixel)
Звук: Аудио #1: AC-3, 48.0 KHz, 6 ch, 384 Kbps, CBR (Russian); Аудио #2: AC-3, 48.0 KHz, 6 ch, 384 Kbps, CBR (English)


Пожалуйста не забывайте нажимать РЕСПЕКТ и СПАСИБО - автору приятно и полезно!
Размер2.05 GB (2,198,291,425 байт)
Скачать Расплата , The Debt [x264] [2010 | BDRip]

:: ОТЗЫВЫ


button_offline Отзыв от kiram
avatar 504653

спасибки ;-) ;-) ;-) ;-) ;-)

button_offline Отзыв от taisea
avatar 787348

филмец сссссупер,спс 8-) 8-) 8-) 8-) 8-)

button_offline Отзыв от drishlio
avatar 749758

как фильм народ,судя по трейлеру не плохой,напишите кто смотрел? :?:

РЕГИСТРАЦИЯ.

Смотрите бесплатное порно или эротику

footerLeft
Информация для правообладателей На ёгли вы скачаете порно, бесплатные фильмы, а также новинки кино. Все это бесплатно и без смс.