Cкачать бесплатно фильмы.
Поиск фильмов
Log Pass забыли?
  Бесплатные фильмы
Скачать Самотык не понадобился - Diamond Foxxx
КатегорияЗрелые / Груди
Похожие фильмы



Похожие онлайн фильмы
Постер фильма Самотык не понадобился - Diamond Foxxx
Самотык не понадобился - Diamond Foxxx

Обзор



Директоршу, которую никто не ебал 2 недели, отфачил ученик, обнаруживший у нее присланный фалоимитатор


General
Complete name                            : C:UsersUserDownloadsDiamond Foxxx.mp4
Format                                   : MPEG-4
Format profile                           : Base Media
Codec ID                                 : isom
File size                                : 220 MiB
Duration                                 : 30mn 59s
Overall bit rate mode                    : Variable
Overall bit rate                         : 990 Kbps
Encoded date                             : UTC 2013-07-10 21:51:38
Tagged date                              : UTC 2013-07-10 21:51:38
Writing application                      : Lavf53.32.100

Video
ID                                       : 1
Format                                   : AVC
Format/Info                              : Advanced Video Codec
Format profile                           : Main@L3.0
Format settings, CABAC                   : Yes
Format settings, ReFrames                : 3 frames
Codec ID                                 : avc1
Codec ID/Info                            : Advanced Video Coding
Duration                                 : 30mn 59s
Bit rate                                 : 900 Kbps
Width                                    : 640 pixels
Height                                   : 360 pixels
Display aspect ratio                     : 16:9
Frame rate mode                          : Constant
Frame rate                               : 30.000 fps
Color space                              : YUV
Chroma subsampling                       : 4:2:0
Bit depth                                : 8 bits
Scan type                                : Progressive
Bits/(Pixel*Frame)                       : 0.130
Stream size                              : 199 MiB (91%)
Writing library                          : x264 core 120
Encoding settings                        : cabac=1 / ref=3 / deblock=1:0:0 / analyse=0x1:0x111 / me=hex / subme=6 / psy=0 / mixed_ref=0 / me_range=16 / chroma_me=1 / trellis=1 / 8x8dct=0 / cqm=0 / deadzone=21,11 / fast_pskip=1 / chroma_qp_offset=0 / threads=48 / sliced_threads=0 / nr=0 / decimate=1 / interlaced=0 / bluray_compat=0 / constrained_intra=0 / bframes=3 / b_pyramid=0 / b_adapt=1 / b_bias=0 / direct=1 / weightb=0 / open_gop=0 / weightp=2 / keyint=150 / keyint_min=25 / scenecut=40 / intra_refresh=0 / rc=2pass / mbtree=0 / bitrate=900 / ratetol=1.0 / qcomp=0.60 / qpmin=10 / qpmax=51 / qpstep=4 / cplxblur=20.0 / qblur=0.5 / ip_ratio=1.40 / pb_ratio=1.30 / aq=1:1.00
Language                                 : English
Encoded date                             : UTC 2013-07-10 21:51:38
Tagged date                              : UTC 2013-07-10 21:51:38

Audio
ID                                       : 2
Format                                   : AAC
Format/Info                              : Advanced Audio Codec
Format profile                           : LC
Codec ID                                 : 40
Duration                                 : 30mn 59s
Bit rate mode                            : Variable
Bit rate                                 : 82.6 Kbps
Maximum bit rate                         : 96.0 Kbps
Channel(s)                               : 2 channels
Channel positions                        : Front: L R
Sampling rate                            : 44.1 KHz
Compression mode                         : Lossy
Stream size                              : 18.3 MiB (8%)
Language                                 : English
Encoded date                             : UTC 2013-07-10 21:51:38
Tagged date                              : UTC 2013-07-10 21:51:38


http://i67.fastpic.ru/big/2015/1122/56/06464440e474a59d14256a82e6384456.gif http://i67.fastpic.ru/big/2015/1122/f1/22f18eea0bd73f29108f1da40f9bf4f1.gif
http://i67.fastpic.ru/big/2015/1122/54/68c86432646a36b6b0c41d8b953daa54.gif http://i74.fastpic.ru/big/2015/1122/b5/de58163024b51e915f9b1869540458b5.gif


http://i65.fastpic.ru/big/2015/1122/80/c0c9e45a00c03f4d19a01c0065712080.jpg
Размер219.53 MB (230,192,690 байт)
Скачать Самотык не понадобился - Diamond Foxxx

:: Отзывы



Отзывы отсутствуют.

 :: Отзывов нет
РЕГИСТРАЦИЯ.

Смотрите бесплатное порно или эротику

footerLeft
Информация для правообладателей На ёгли вы скачаете порно, бесплатные фильмы, а также новинки кино. Все это бесплатно и без смс.