Cкачать бесплатно фильмы.
Поиск фильмов
Log Pass забыли?
  Бесплатные фильмы
Скачать Секретарша - Secretary
Видео закрыто попробуйте наити похожие Секретарша - Secretary
КатегорияЗрелые
Похожие фильмы



Похожие онлайн фильмы
Постер фильма Секретарша - Secretary
Секретарша - Secretary
Фото фильма Секретарша - Secretary
Секретарша - Secretary

Обзор



Зрелая секретарша попала под боса!!! :-D :-D :-D


Format                           : AVI
Format/Info                      : Audio Video Interleave
File size                        : 130 MiB
Duration                         : 14mn 30s
Overall bit rate                 : 1 255 Kbps
Writing library                  : VirtualDub build 28346/release

Video
ID                               : 0
Format                           : MPEG-4 Visual
Format settings, BVOP            : Yes
Format settings, QPel            : No
Format settings, GMC             : No warppoints
Format settings, Matrix          : Default (H.263)
Muxing mode                      : Packed bitstream
Codec ID                         : DX50
Codec ID/Hint                    : DivX 5
Duration                         : 14mn 30s
Bit rate                         : 1 187 Kbps
Width                            : 640 pixels
Height                           : 480 pixels
Display aspect ratio             : 4:3
Frame rate                       : 29.970 fps
Resolution                       : 24 bits
Colorimetry                      : 4:2:0
Scan type                        : Progressive
Bits/(Pixel*Frame)               : 0.129
Stream size                      : 123 MiB (95%)
Writing library                  : DivX 6.2.5 (UTC 2006-07)

Audio
ID                               : 1
Format                           : MPEG Audio
Format version                   : Version 2
Format profile                   : Layer 3
Format settings, Mode            : Joint stereo / Intensity Stereo + MS Stereo
Codec ID                         : 55
Codec ID/Hint                    : MP3
Duration                         : 14mn 30s
Bit rate mode                    : Constant
Bit rate                         : 56.0 Kbps
Channel(s)                       : 2 channels
Sampling rate                    : 24.0 KHz
Resolution                       : 16 bits
Stream size                      : 5.81 MiB (4%)
Alignment                        : Split accross interleaves
Interleave, duration             : 33 ms (1.00 video frame)
Interleave, preload duration     : 500 ms

Размер130.15 MB (136,476,482 байт)
Скачать Секретарша - Secretary
Видео закрыто попробуйте наити похожие Секретарша - Secretary

:: ОТЗЫВЫ


button_offline Отзыв от Glanzend
avatar 422682

Знает своё дело..., или за что щас платят.... :-D :-D :-D

РЕГИСТРАЦИЯ.

Смотрите бесплатное порно или эротику

footerLeft
Информация для правообладателей На ёгли вы скачаете порно, бесплатные фильмы, а также новинки кино. Все это бесплатно и без смс.