Cкачать бесплатно фильмы.
Поиск фильмов
Log Pass забыли?
  Бесплатные фильмы
Скачать Секс-бомба - Brooke Banner
КатегорияОргия / Груди
Похожие фильмы



Похожие онлайн фильмы
Постер фильма Секс-бомба - Brooke Banner
Секс-бомба - Brooke Banner

Обзор



Два мужичка трахают потрясную шлюху


General
Complete name                            : C:UsersUserDownloadsBrooke Banner.mp4
Format                                   : MPEG-4
Format profile                           : Base Media
Codec ID                                 : isom
File size                                : 138 MiB
Duration                                 : 8mn 20s
Overall bit rate mode                    : Variable
Overall bit rate                         : 2 318 Kbps
Encoded date                             : UTC 2015-11-02 15:54:56
Tagged date                              : UTC 2015-11-02 15:54:56

Video
ID                                       : 1
Format                                   : AVC
Format/Info                              : Advanced Video Codec
Format profile                           : High@L4.1
Format settings, CABAC                   : Yes
Format settings, ReFrames                : 8 frames
Codec ID                                 : avc1
Codec ID/Info                            : Advanced Video Coding
Duration                                 : 8mn 20s
Bit rate                                 : 2 251 Kbps
Maximum bit rate                         : 4 106 Kbps
Width                                    : 1 280 pixels
Height                                   : 720 pixels
Display aspect ratio                     : 16:9
Frame rate mode                          : Constant
Frame rate                               : 25.000 fps
Color space                              : YUV
Chroma subsampling                       : 4:2:0
Bit depth                                : 8 bits
Scan type                                : Progressive
Bits/(Pixel*Frame)                       : 0.098
Stream size                              : 134 MiB (97%)
Writing library                          : Zencoder Video Encoding System
Encoded date                             : UTC 2015-11-02 15:51:45
Tagged date                              : UTC 2015-11-02 15:54:57

Audio
ID                                       : 2
Format                                   : AAC
Format/Info                              : Advanced Audio Codec
Format profile                           : LC
Codec ID                                 : 40
Duration                                 : 8mn 20s
Bit rate mode                            : Variable
Bit rate                                 : 64.0 Kbps
Maximum bit rate                         : 68.9 Kbps
Channel(s)                               : 2 channels
Channel positions                        : Front: L R
Sampling rate                            : 44.1 KHz
Compression mode                         : Lossy
Stream size                              : 3.82 MiB (3%)
Encoded date                             : UTC 2015-11-02 15:50:51
Tagged date                              : UTC 2015-11-02 15:54:57


http://i75.fastpic.ru/thumb/2015/1104/5e/99e61808fd765bf4d41d4e495834e15e.jpeg http://i75.fastpic.ru/thumb/2015/1104/ca/d99595495859b9b303299e9a23f088ca.jpeg http://i75.fastpic.ru/thumb/2015/1104/2e/a7c1a6165c6415230bcbef5b519f482e.jpeg http://i75.fastpic.ru/thumb/2015/1104/f3/a741f9d1af72122b5d21f80be58641f3.jpeg
Размер138.29 MB (145,012,706 байт)
Скачать Секс-бомба - Brooke Banner

:: Отзывы



Отзывы отсутствуют.

 :: Отзывов нет
РЕГИСТРАЦИЯ.

Смотрите бесплатное порно или эротику

footerLeft
Информация для правообладателей На ёгли вы скачаете порно, бесплатные фильмы, а также новинки кино. Все это бесплатно и без смс.