Cкачать бесплатно фильмы.
Поиск фильмов
Log Pass забыли?
  Бесплатные фильмы
Скачать Секс по дружбе , Friends With Benefits 720p [2011 | HDTV]
КатегорияКомедия / Романтика
Похожие фильмы



Похожие онлайн фильмы
Постер фильма Секс по дружбе , Friends With Benefits 720p [2011 | HDTV]
Секс по дружбе ,  Friends With Benefits 720p [2011 | HDTV]

Трэйлер


34xfcoRceeU&feature=player_embedded

Обзор



Название: Секс по дружбе
Оригинальное название:  Friends With Benefits 720p
Год выхода: 2011
Режиссер: Уилл Глак
В ролях: Джастин Тимберлэйк, Мила Кунис, Патришия Кларксон, Дженна Элфмэн, Брайан Гринберг, Ричард Дженкинс, Вуди Харрельсон, Нолан Гоулд, Энди Сэмберг, Шон Уайт
Продолжительность: 1:49:25
Язык: Русский Профессиональный (полное дублирование)

О фильме:
«СПД !»

Главная героиня — сотрудник кадрового агентства, которую преследуют фобии в отношениях с обязательствами. Однако, эти проблемы оказываются надуманными, после того как она встречает редактора глянцевого журнала. Он, в свою очередь, устал от женщин, которые мечтают вступить с ним в связь. Таким образом, созданы все условия для бурного романа и столкновения характеров и желаний.условия для бурного романа и столкновения характеров и желаний.


http://s017.radikal.ru/i400/1112/a8/ff76ca9353fe.gif


http://thumbnails64.imagebam.com/16732/e3d7a6167314965.jpg http://thumbnails64.imagebam.com/16732/394077167314976.jpg http://thumbnails17.imagebam.com/16732/545b8c167314986.jpg http://thumbnails42.imagebam.com/16732/4d3d46167314993.jpg http://thumbnails29.imagebam.com/16732/743182167315006.jpg http://thumbnails50.imagebam.com/16732/2a3ce8167315015.jpg http://thumbnails30.imagebam.com/16732/262531167315024.jpg http://thumbnails30.imagebam.com/16732/82c0f0167315031.jpg


INFO AUDIO!

Audio #1
ID                                      : 2
Format                                  : AC-3
Format/Info                              : Audio Coding 3
Mode extension                          : CM (complete main)
Codec ID                                : A_AC3
Duration                                : 1h 49mn
Bit rate mode                            : Constant
Bit rate                                : 640 Kbps
Channel(s)                              : 6 channels
Channel positions                        : Front: L C R, Side: L R, LFE
Sampling rate                            : 48.0 KHz
Bit depth                                : 16 bits
Compression mode                        : Lossy
Stream size                              : 501 MiB (9%)
Language                                : Russian

Audio #2
ID                                      : 3
Format                                  : DTS
Format/Info                              : Digital Theater Systems
Codec ID                                : A_DTS
Duration                                : 1h 49mn
Bit rate mode                            : Constant
Bit rate                                : 1 510 Kbps
Channel(s)                              : 6 channels
Channel positions                        : Front: L C R, Side: L R, LFE
Sampling rate                            : 48.0 KHz
Bit depth                                : 16 bits
Compression mode                        : Lossy
Stream size                              : 1.15 GiB (21%)
Title                                    : DTS 5.1 @ 1536 kbps
Language                                : English

Audio #3
ID                                      : 4
Format                                  : AC-3
Format/Info                              : Audio Coding 3
Format profile                          : Dolby Digital
Mode extension                          : CM (complete main)
Codec ID                                : A_AC3
Duration                                : 1h 49mn
Bit rate mode                            : Constant
Bit rate                                : 192 Kbps
Channel(s)                              : 2 channels
Channel positions                        : Front: L R
Sampling rate                            : 48.0 KHz
Bit depth                                : 16 bits
Compression mode                        : Lossy
Stream size                              : 150 MiB (3%)
Title                                    : Commentary
Language                                : English


http://s42.radikal.ru/i095/1112/79/d1d67ef78403.gif


http://s011.radikal.ru/i318/1112/05/36b3cd8cfa48.png



ФАЙЛ
Качество: HDTV
Видео: 1280x536 at 23.976 fps, x264@L4.1, 2pass, ~4990 kbps avg
Звук: Аудио#1: Russian: 48 kHz, AC3, 3/2 (L,C,R,l,r) + LFE ch, ~640.00 kbps avg |Дубляж, CEE| Аудио#2: English: 48 kHz, DTS, 3/2 (L,C,R,l,r) + LFE ch, ~1536.00 kbps avg Аудио#3: English: 48 kHz, AC3, 2/0 (L,R) ch, ~192.00 kbps avg |Commentary|
Размер5.61 GB (6,019,115,332 байт)
Скачать Секс по дружбе , Friends With Benefits 720p [2011 | HDTV]

:: ОТЗЫВЫ


button_offline Отзыв от dohlii
avatar 800063

фильм классный,мне понравился

РЕГИСТРАЦИЯ.

Смотрите бесплатное порно или эротику

footerLeft
Информация для правообладателей На ёгли вы скачаете порно, бесплатные фильмы, а также новинки кино. Все это бесплатно и без смс.