Cкачать бесплатно фильмы.
Поиск фильмов
Log Pass забыли?
  Бесплатные фильмы
Скачать Сексуальная начальница соблазнила молодого работника - Jade Laroche (Jade Secretaire de Luxe) Vitoldi Release 06.05.11
КатегорияСюжетное
Похожие фильмы



Похожие онлайн фильмы
Постер фильма Сексуальная начальница соблазнила молодого работника - Jade Laroche (Jade Secretaire de Luxe) Vitoldi Release 06.05.11
Сексуальная начальница соблазнила молодого работника - Jade Laroche (Jade Secretaire de Luxe) Vitoldi Release 06.05.11

Обзор



Сексуальная начальница соблазнила молодого работника


Информация о видео:

      Format : Windows Media
      File size : 198 MiB
      Duration : 16mn 12s
      Overall bit rate mode : Constant
      Overall bit rate : 1 704 Kbps
      Maximum Overall bit rate : 1 698 Kbps
      Encoded date : UTC 2011-04-05 19:31:57.930
   Video #1
      ID : 1
      Format : VC-1
      Format profile : MP
      Codec ID : WMV3
      Codec ID/Info : Windows Media Video 9
      Codec ID/Hint : WMV3
      Duration : 16mn 12s
      Bit rate mode : Variable
      Bit rate : 1 495 Kbps
      Width : 720 pixels
      Height : 406 pixels
      Display aspect ratio : 16:9
      Frame rate : 25.000 fps
      Resolution : 24 bits
      Scan type : Progressive
      Bits/(Pixel*Frame) : 0.205
      Stream size : 173 MiB (88%)
      Language : Russian
   Audio #2
      ID : 2
      Format : WMA2
      Codec ID : 161
      Codec ID/Info : Windows Media Audio 2
      Duration : 16mn 12s
      Bit rate mode : Constant
      Bit rate : 192 Kbps
      Channel(s) : 2 channels
      Sampling rate : 48.0 KHz
      Resolution : 16 bits
      Stream size : 22.3 MiB (11%)
      Language : Russian


Скрин:
http://pic4you.ru/allimage/y2011/05-06/7830/879958-thumb.jpg

Размер198.06 MB (207,683,749 байт)
Скачать Сексуальная начальница соблазнила молодого работника - Jade Laroche (Jade Secretaire de Luxe) Vitoldi Release 06.05.11
Файлы
[Посмотреть список]
4 файлы

:: ОТЗЫВЫ


button_offline Отзыв от fifa2
avatar 207311

:))))

гандон думаю не в тему:РРР
а так отличное порно :)))
хотя и с гандоном есть интерес  :-D

РЕГИСТРАЦИЯ.

Смотрите бесплатное порно или эротику

footerLeft
Информация для правообладателей На ёгли вы скачаете порно, бесплатные фильмы, а также новинки кино. Все это бесплатно и без смс.