Cкачать бесплатно фильмы.
Поиск фильмов
Log Pass забыли?
  Бесплатные фильмы
Скачать Сексуальное тело Дженнифер Макс - Jennifer Max - Sexy Body
КатегорияМастурбация / Груди
Похожие фильмы



Похожие онлайн фильмы
Постер фильма Сексуальное тело Дженнифер Макс - Jennifer Max - Sexy Body
Сексуальное тело Дженнифер Макс - Jennifer Max - Sexy Body
Фото фильма Сексуальное тело Дженнифер Макс - Jennifer Max - Sexy Body
Сексуальное тело Дженнифер Макс - Jennifer Max - Sexy Body

Обзор



Format                           : Windows Media
File size                        : 351 MiB
Duration                         : 11mn 48s
Overall bit rate mode            : Variable
Overall bit rate                 : 4 157 Kbps
Maximum Overall bit rate         : 4 167 Kbps
Encoded date                     : UTC 2009-02-19 21:59:27.796

Video
ID                               : 2
Format                           : VC-1
Format profile                   : MP@HL
Codec ID                         : WMV3
Codec ID/Info                    : Windows Media Video 9
Codec ID/Hint                    : WMV3
Description of the codec         : Windows Media Video 9 - Professional
Duration                         : 11mn 48s
Bit rate mode                    : Variable
Bit rate                         : 4 000 Kbps
Width                            : 1 280 pixels
Height                           : 720 pixels
Display aspect ratio             : 16:9
Frame rate                       : 29.970 fps
Bit depth                        : 8 bits
Scan type                        : Progressive
Compression mode                 : Lossy
Bits/(Pixel*Frame)               : 0.145
Stream size                      : 338 MiB (96%)
Language                         : Hungarian

Audio
ID                               : 1
Format                           : WMA
Format version                   : Version 2
Codec ID                         : 161
Codec ID/Info                    : Windows Media Audio
Description of the codec         : Windows Media Audio 9.1 - 128 kbps, 44 kHz, stereo 2-pass CBR
Duration                         : 11mn 48s
Bit rate mode                    : Constant
Bit rate                         : 128 Kbps
Channel(s)                       : 2 channels
Sampling rate                    : 44.1 KHz
Bit depth                        : 16 bits
Stream size                      : 10.8 MiB (3%)
Language                         : Hungarian (HU)
Размер350.84 MB (367,881,747 байт)
Скачать Сексуальное тело Дженнифер Макс - Jennifer Max - Sexy Body

:: Отзывы



Отзывы отсутствуют.

 :: Отзывов нет
РЕГИСТРАЦИЯ.

Смотрите бесплатное порно или эротику

footerLeft
Информация для правообладателей На ёгли вы скачаете порно, бесплатные фильмы, а также новинки кино. Все это бесплатно и без смс.