Cкачать бесплатно фильмы.
Поиск фильмов
Log Pass забыли?
  Бесплатные фильмы
Скачать Сиськи гигантских размеров - Holly Halston
КатегорияЗрелые / Груди
Похожие фильмы



Похожие онлайн фильмы
Постер фильма Сиськи гигантских размеров - Holly Halston
Сиськи гигантских размеров - Holly Halston

Обзор



Телка дает непонятного вида мудаку


General
Complete name                            : C:UsersUserDownloadsHolly Halston.mp4
Format                                   : MPEG-4
Format profile                           : Base Media / Version 2
Codec ID                                 : mp42
File size                                : 57.2 MiB
Duration                                 : 3mn 58s
Overall bit rate mode                    : Variable
Overall bit rate                         : 2 015 Kbps
Encoded date                             : UTC 2015-10-28 18:05:43
Tagged date                              : UTC 2015-10-28 18:05:43
gsst                                     : 0
gstd                                     : 238120
gssd                                     : B4A7DD146
gshh                                     : r6---sn-5hn7su7s.googlevideo.com

Video
ID                                       : 1
Format                                   : AVC
Format/Info                              : Advanced Video Codec
Format profile                           : High@L3.1
Format settings, CABAC                   : Yes
Format settings, ReFrames                : 1 frame
Format settings, GOP                     : M=1, N=60
Codec ID                                 : avc1
Codec ID/Info                            : Advanced Video Coding
Duration                                 : 3mn 58s
Bit rate                                 : 1 821 Kbps
Maximum bit rate                         : 2 944 Kbps
Width                                    : 1 280 pixels
Height                                   : 720 pixels
Display aspect ratio                     : 16:9
Frame rate mode                          : Constant
Frame rate                               : 25.000 fps
Color space                              : YUV
Chroma subsampling                       : 4:2:0
Bit depth                                : 8 bits
Scan type                                : Progressive
Bits/(Pixel*Frame)                       : 0.079
Stream size                              : 51.7 MiB (90%)
Tagged date                              : UTC 2015-10-28 18:05:45

Audio
ID                                       : 2
Format                                   : AAC
Format/Info                              : Advanced Audio Codec
Format profile                           : LC
Codec ID                                 : 40
Duration                                 : 3mn 58s
Bit rate mode                            : Variable
Bit rate                                 : 192 Kbps
Maximum bit rate                         : 202 Kbps
Channel(s)                               : 2 channels
Channel positions                        : Front: L R
Sampling rate                            : 44.1 KHz
Compression mode                         : Lossy
Stream size                              : 5.45 MiB (10%)
Title                                    : IsoMedia File Produced by Google, 5-11-2011
Language                                 : English


http://i74.fastpic.ru/thumb/2015/1030/8c/5a76b0ac88299e7a0f120a4c2ed9348c.jpeg http://i74.fastpic.ru/thumb/2015/1030/4e/0537820b24388f1e3aac9133d066f94e.jpeg http://i74.fastpic.ru/thumb/2015/1030/d6/2e5552fb5614190607f2213b09c215d6.jpeg http://i74.fastpic.ru/thumb/2015/1030/41/d9f93037e877a01103acd5cf2b3ca341.jpeg
Размер57.17 MB (59,947,680 байт)
Скачать Сиськи гигантских размеров - Holly Halston

:: ОТЗЫВЫ


button_offline Отзыв от Sergoganet
avatar 456681

:-) :-) :-) :-) :-) :-) :-) :-) :-)

РЕГИСТРАЦИЯ.

Смотрите бесплатное порно или эротику

footerLeft
Информация для правообладателей На ёгли вы скачаете порно, бесплатные фильмы, а также новинки кино. Все это бесплатно и без смс.