Cкачать бесплатно фильмы.
Поиск фильмов
Log Pass забыли?
  Бесплатные фильмы
Скачать Сняли и оттрахали - Charlee Chase, Holly Halston, Sara Jay
КатегорияОргия / Зрелые / Груди
Похожие фильмы



Похожие онлайн фильмы
Постер фильма Сняли и оттрахали - Charlee Chase, Holly Halston, Sara Jay
Сняли и оттрахали - Charlee Chase, Holly Halston, Sara Jay

Обзор



Три похотливые суки сняли на пляже парня и дома поеблись с ним как надо


General
Complete name                            : C:UsersUserDownloadsCharlee Chase, Holly Halston, Sara Jay.mkv
Format                                   : Matroska
Format version                           : Version 1
File size                                : 1 000 MiB
Duration                                 : 8mn 40s
Overall bit rate mode                    : Variable
Overall bit rate                         : 16.1 Mbps
Writing application                      : Cyberlink Matroska Muxer v1.0.0
Writing library                          : libebml v0.7.8 + libmatroska v0.8.1

Video
ID                                       : 1
Format                                   : AVC
Format/Info                              : Advanced Video Codec
Format profile                           : High@L4.1
Format settings, CABAC                   : Yes
Format settings, ReFrames                : 2 frames
Codec ID                                 : V_MS/VFW/FOURCC / H264
Duration                                 : 8mn 40s
Bit rate mode                            : Variable
Bit rate                                 : 15.5 Mbps
Maximum bit rate                         : 17.0 Mbps
Width                                    : 1 920 pixels
Height                                   : 1 080 pixels
Display aspect ratio                     : 16:9
Frame rate mode                          : Constant
Frame rate                               : 23.976 fps
Color space                              : YUV
Chroma subsampling                       : 4:2:0
Bit depth                                : 8 bits
Scan type                                : Progressive
Bits/(Pixel*Frame)                       : 0.312
Stream size                              : 964 MiB (96%)
Language                                 : English
Default                                  : Yes
Forced                                   : No

Audio
ID                                       : 2
Format                                   : AC-3
Format/Info                              : Audio Coding 3
Mode extension                           : CM (complete main)
Format settings, Endianness              : Big
Codec ID                                 : A_AC3
Duration                                 : 8mn 40s
Bit rate mode                            : Constant
Bit rate                                 : 256 Kbps
Channel(s)                               : 2 channels
Channel positions                        : Front: L R
Sampling rate                            : 48.0 KHz
Bit depth                                : 16 bits
Compression mode                         : Lossy
Stream size                              : 15.9 MiB (2%)
Language                                 : English
Default                                  : Yes
Forced                                   : No


http://i76.fastpic.ru/big/2015/1120/be/c0e56fd759f6864ace17c93f6eb74bbe.gif http://i75.fastpic.ru/big/2015/1120/b8/4ee8fe5a62cbd374e96138ca636cf5b8.gif
http://i76.fastpic.ru/big/2015/1120/05/47a5a5b87e488f45beee34caa6b19205.gif http://i75.fastpic.ru/big/2015/1120/99/b80d3f120d465c09bad3e4aaee3cdf99.gif


http://i75.fastpic.ru/big/2015/1120/84/625529f761771ff6d0c85aef3b48cd84.jpg
Размер0.98 GB (1,048,614,336 байт)
Скачать Сняли и оттрахали - Charlee Chase, Holly Halston, Sara Jay

:: ОТЗЫВЫ


button_offline Отзыв от Sergoganet
avatar 456681

:-) :-) :-) :-) :-) :-) :-) :-)

button_offline Отзыв от smails
avatar 249106

скрины просто супер :-D :-D :-D :-D :-D :-D :-D

РЕГИСТРАЦИЯ.

Смотрите бесплатное порно или эротику

footerLeft
Информация для правообладателей На ёгли вы скачаете порно, бесплатные фильмы, а также новинки кино. Все это бесплатно и без смс.