Cкачать бесплатно фильмы.
Поиск фильмов
Log Pass забыли?
  Бесплатные фильмы
Скачать Солдаты удачи , Soldiers of Fortune [x264] [2012 | BDRip]
КатегорияБоевик / Приключения
Похожие фильмы



Похожие онлайн фильмы
Постер фильма Солдаты удачи , Soldiers of Fortune [x264] [2012 | BDRip]
Солдаты удачи , Soldiers of Fortune [x264] [2012 | BDRip]

Трэйлер


UEXrM9GFC-U&feature=player_embedded

Обзор



http://i42.fastpic.ru/big/2012/0804/46/43bb48c1f54be88223d3aa14db709046.png
Название: Солдаты удачи
Оригинальное название: Soldiers of Fortune
Год выхода: 2012
Режиссер: Максим Коростышевский
Cценарий: Alexandre Coscas, Роберт Кромби, Joe Kelbley
В ролях: Шон Бин, Кристиан Слэйтер, Доминик Монахэн, Винг Реймз, Джеймс Кромуэлл, Фредди Родригес, Колм Мини, Райан Доноху, Чарли Бьюли, Сара Анн Шультс
Продолжительность: 01:33:47
Язык: Русский Профессиональный (Полное дублирование) | Лицензия R5!

http://i40.fastpic.ru/big/2012/0804/83/74a1dd4f309e26ba7f6bd5f2f9399b83.png
О фильме:
«To stop the worst you have to send the best»

Миллионеры-адреналиноманы, которые уже взяли от жизни все, но хотят еще большего. Все они: банкир с Уолл-Стрит, гений видео игр, русский алюминиевый магнат, международный торговец оружием и один из основателей мобильной связи. За собственные деньги они отправляются на войну, чтобы почувствовать ее настоящий вкус и получить новую дозу адреналина. Но с самого начала все идет не так. Иллюзия игры рушится, как только миллионеры попадают на остров. При высадке их лодки тонут, а охрана — убита.

http://i42.fastpic.ru/big/2012/0804/3e/e2bab78581b9d9ea7eec221eb0060b3e.png
http://zamolxismd.org/m/s7.directupload.net/images/120815/p65z7zqf.pnghttp://zamolxismd.org/m/s7.directupload.net/images/120815/fivptniy.png
http://zamolxismd.org/m/s7.directupload.net/images/120815/qyvfh463.pnghttp://zamolxismd.org/m/s1.directupload.net/images/120815/3ajvzjmy.png
http://zamolxismd.org/m/s14.directupload.net/images/120815/meilq8n5.pnghttp://zamolxismd.org/m/s1.directupload.net/images/120815/q323emlx.png
http://zamolxismd.org/m/s1.directupload.net/images/120815/8v5ajgg6.pnghttp://zamolxismd.org/m/s1.directupload.net/images/120815/pfjgy7ra.png

Media Info писал

Soldaty.udachi.2012.D.BDRip.x264.1400MB.mkv
Format                           : Matroska
File size                        : 1.36 GiB
Duration                         : 1h 33mn
Overall bit rate                 : 2 083 Kbps
Encoded date                     : UTC 2012-08-15 17:48:37
Writing application              : mkvmerge v5.2.0 ('I can't explain') built on Dec 18 2011 18:12:03
Writing library                  : libebml v1.2.3 + libmatroska v1.3.0

Video
ID                               : 1
Format                           : AVC
Format/Info                      : Advanced Video Codec
Format profile                   : Main@L4.1
Format settings, CABAC           : Yes
Format settings, ReFrames        : 12 frames
Codec ID                         : V_MPEG4/ISO/AVC
Duration                         : 1h 33mn
Bit rate                         : 1 634 Kbps
Width                            : 720 pixels
Height                           : 304 pixels
Display aspect ratio             : 2.35:1
Frame rate                       : 23.976 fps
Color space                      : YUV
Chroma subsampling               : 4:2:0
Bit depth                        : 8 bits
Scan type                        : Progressive
Bits/(Pixel*Frame)               : 0.311
Stream size                      : 1.04 GiB (76%)
Writing library                  : x264 core 125 r2200 999b753
Encoding settings                : cabac=1 / ref=12 / deblock=1:-3:-3 / analyse=0x1:0x111 / me=umh /
subme=7 / psy=1 / psy_rd=1.00:0.20 / mixed_ref=1 / me_range=16 / chroma_me=1 / trellis=2 /
8x8dct=0 / cqm=0 / deadzone=21,11 / fast_pskip=1 / chroma_qp_offset=-6 / threads=12 /
lookahead_threads=2 / sliced_threads=0 / nr=0 / decimate=1 / interlaced=0 / bluray_compat=0 /
constrained_intra=0 / bframes=5 / b_pyramid=2 / b_adapt=2 / b_bias=0 / direct=3 / weightb=1 /
open_gop=0 / weightp=2 / keyint=240 / keyint_min=23 / scenecut=40 / intra_refresh=0 /
rc_lookahead=40 / rc=2pass / mbtree=1 / bitrate=1634 / ratetol=1.0 / qcomp=0.60 / qpmin=10 /
qpmax=51 / qpstep=4 / cplxblur=20.0 / qblur=0.5 / vbv_maxrate=17500 / vbv_bufsize=14000 /
nal_hrd=none / ip_ratio=1.40 / aq=1:1.00

Audio
ID                               : 2
Format                           : AC-3
Format/Info                      : Audio Coding 3
Mode extension                   : CM (complete main)
Codec ID                         : A_AC3
Duration                         : 1h 33mn
Bit rate mode                    : Constant
Bit rate                         : 448 Kbps
Channel(s)                       : 6 channels
Channel positions                : Front: L C R, Side: L R, LFE
Sampling rate                    : 48.0 KHz
Bit depth                        : 16 bits
Compression mode                 : Lossy
Stream size                      : 301 MiB (22%)
Language                         : Russian






ФАЙЛ
Качество: BDRip
Видео: 720x304 (2.37:1), 23.976 fps, x264 @ L4.1, 2pass ~1634 kbps avg, 0.31 bit/pixel
Звук: 48 kHz, AC3 Dolby Digital, 3/2 (L,C,R,l,r) + LFE ch, ~448.00 kbps avg


Пожалуйста не забывайте нажимать РЕСПЕКТ и СПАСИБО - автору приятно и полезно!
Размер1.36 GB (1,465,571,014 байт)
Скачать Солдаты удачи , Soldiers of Fortune [x264] [2012 | BDRip]

:: ОТЗЫВЫ


button_offline Отзыв от DJINKESHA
avatar 814174

a фильм нормуль!! Весь почти снят в Крыму и даже в Севастополе в Балаклавском музее подводных лодок есть сюжет! стабильная 4 с +!!!

button_offline Отзыв от unss
avatar 755342

фильм не плохой раз можно посмотреть. снимали по ходу где то на черном море в крыму

button_offline Отзыв от dimsmyk
avatar 846553

;-) ;-) ;-) ;-) ;-) ;-) ;-) ;-) :-D :-D :-D :-D :-D :-D :-D

РЕГИСТРАЦИЯ.

Смотрите бесплатное порно или эротику

footerLeft
Информация для правообладателей На ёгли вы скачаете порно, бесплатные фильмы, а также новинки кино. Все это бесплатно и без смс.