Cкачать бесплатно фильмы.
Поиск фильмов
Log Pass забыли?
  Бесплатные фильмы
Скачать Спортивная проституция - Rihanna Samuel
КатегорияОргия / Анал
Похожие фильмы



Похожие онлайн фильмы
Постер фильма Спортивная проституция - Rihanna Samuel
Спортивная проституция - Rihanna Samuel

Обзор



В спорт-зале сняли шлюху и отдуплили как положено


General
Complete name                            : C:UsersUserDownloadsRihanna Samuel.avi
Format                                   : AVI
Format/Info                              : Audio Video Interleave
File size                                : 114 MiB
Duration                                 : 16mn 12s
Overall bit rate mode                    : Variable
Overall bit rate                         : 982 Kbps
Writing application                      : VirtualDubMod 1.5.10.2 (build 2540/release)
Writing library                          : VirtualDub build 32706/release

Video
ID                                       : 0
Format                                   : MPEG-4 Visual
Format profile                           : Advanced Simple@L5
Format settings, BVOP                    : 2
Format settings, QPel                    : No
Format settings, GMC                     : No warppoints
Format settings, Matrix                  : Default (H.263)
Codec ID                                 : XVID
Codec ID/Hint                            : XviD
Duration                                 : 16mn 12s
Bit rate                                 : 843 Kbps
Width                                    : 576 pixels
Height                                   : 320 pixels
Display aspect ratio                     : 16:9
Frame rate                               : 25.000 fps
Color space                              : YUV
Chroma subsampling                       : 4:2:0
Bit depth                                : 8 bits
Scan type                                : Progressive
Compression mode                         : Lossy
Bits/(Pixel*Frame)                       : 0.183
Stream size                              : 97.7 MiB (86%)
Writing library                          : XviD 1.1.2 (UTC 2006-11-01)

Audio
ID                                       : 1
Format                                   : MPEG Audio
Format version                           : Version 1
Format profile                           : Layer 3
Mode                                     : Joint stereo
Mode extension                           : MS Stereo
Codec ID                                 : 55
Codec ID/Hint                            : MP3
Duration                                 : 16mn 12s
Bit rate mode                            : Variable
Bit rate                                 : 128 Kbps
Channel(s)                               : 2 channels
Sampling rate                            : 48.0 KHz
Compression mode                         : Lossy
Stream size                              : 14.7 MiB (13%)
Alignment                                : Aligned on interleaves
Interleave, duration                     : 24 ms (0.60 video frame)
Interleave, preload duration             : 509 ms


http://i66.fastpic.ru/thumb/2015/1031/4d/bc8d9f5c92a2d20d0c5e7a60aee0294d.jpeg http://i66.fastpic.ru/thumb/2015/1031/a5/49e232da450f145992f6ea46d5fc38a5.jpeg http://i66.fastpic.ru/thumb/2015/1031/58/4c1dbed69487bbcfef9c29540539a458.jpeg http://i66.fastpic.ru/thumb/2015/1031/91/85c72c720bf16e46d8aed91d4cfb4391.jpeg
Размер113.90 MB (119,431,534 байт)
Скачать Спортивная проституция - Rihanna Samuel

:: Отзывы



Отзывы отсутствуют.

 :: Отзывов нет
РЕГИСТРАЦИЯ.

Смотрите бесплатное порно или эротику

footerLeft
Информация для правообладателей На ёгли вы скачаете порно, бесплатные фильмы, а также новинки кино. Все это бесплатно и без смс.