Cкачать бесплатно фильмы.
Поиск фильмов
Log Pass забыли?
  Бесплатные фильмы
Скачать Старое сладкое,вечеринка в живом саду - Garden party 1997 ClipGalaxy.com
КатегорияЗрелые / Классика / Груди
Похожие фильмы



Похожие онлайн фильмы
Постер фильма Старое сладкое,вечеринка в живом саду - Garden party 1997 ClipGalaxy.com
Старое сладкое,вечеринка в живом саду - Garden party 1997 ClipGalaxy.com

Обзор



О видео:

      Format : Flash Video
      File size : 289 MiB
      Duration : 1h 24mn
      Overall bit rate : 478 Kbps
      Tagged date : UTC 2011-10-29 10:11:52
      Tagging application : inlet media FLVTool2 v1.0.6 - http://www.inlet-media.de/flvtool2
   Video
      Format : VP6
      Duration : 1h 24mn
      Bit rate : 406 Kbps
      Width : 528 pixels
      Height : 400 pixels
      Display aspect ratio : 4:3
      Frame rate : 25.000 fps
      Bits/(Pixel*Frame) : 0.077
      Stream size : 247 MiB (85%)
   Audio
      Format : MPEG Audio
      Format version : Version 2
      Format profile : Layer 3
      Duration : 1h 24mn
      Bit rate mode : Constant
      Bit rate : 64.0 Kbps
      Channel(s) : 2 channels
      Sampling rate : 22.05 KHz
      Resolution : 16 bits
      Stream size : 40.9 MiB (14%)

Скрины:
http://pic4you.ru/allimage/y2011/12-28/7830/1554159-thumb.jpeg
http://pic4you.ru/allimage/y2011/12-28/7830/1554160-thumb.jpeg
http://pic4you.ru/allimage/y2011/12-28/7830/1554161-thumb.jpeg


http://i30.fastpic.ru/big/2011/1228/8c/d5f130355c1abc4ffce82388b8d6298c.jpg
http://i30.fastpic.ru/big/2011/1228/d1/5df65efe6afea7f3856f0210f603f7d1.jpg
http://i30.fastpic.ru/big/2011/1228/42/67c2ea3a59e9e7b58a029154a175d942.jpg
http://i30.fastpic.ru/big/2011/1228/2c/0144977024d368b4ab924af02515d02c.jpg
http://i30.fastpic.ru/big/2011/1228/7d/66ac3d6881968ce3b491a0325421f57d.jpg
http://i30.fastpic.ru/big/2011/1228/76/6fe0d0b1a78572f174a8b8ea2df58076.jpg
http://i30.fastpic.ru/big/2011/1228/5a/711e4c9554565533d3bc7179ce13195a.jpg
http://i30.fastpic.ru/big/2011/1228/df/1332ff318b96129e923496ad3f7558df.jpg
http://i30.fastpic.ru/big/2011/1228/71/db302b00958e46e7011225a063d0c871.jpg
http://i30.fastpic.ru/big/2011/1228/38/82dc9871f2d331b4d60ccf3c3c22ff38.jpg
http://i30.fastpic.ru/big/2011/1228/ae/cc4452601648380c1f87f02af8072dae.jpg

Размер289.68 MB (303,750,111 байт)
Скачать Старое сладкое,вечеринка в живом саду - Garden party 1997 ClipGalaxy.com
Файлы
[Посмотреть список]
6 файлы

:: ОТЗЫВЫ


button_offline Отзыв от Mrlev2010
avatar 787837

Вот это сладкий десерт))

РЕГИСТРАЦИЯ.

Смотрите бесплатное порно или эротику

footerLeft
Информация для правообладателей На ёгли вы скачаете порно, бесплатные фильмы, а также новинки кино. Все это бесплатно и без смс.