Cкачать бесплатно фильмы.
Поиск фильмов
Log Pass забыли?
  Бесплатные фильмы
Скачать Стильные пятидесятые Впрыскивая ДП порево - Nifty Fifties Squirting DP Gang Bang
КатегорияЖёсткое / Зрелые / Анал / Оргия / Груди
Похожие фильмы



Похожие онлайн фильмы
Постер фильма Стильные пятидесятые Впрыскивая ДП порево - Nifty Fifties Squirting DP Gang Bang
Стильные пятидесятые Впрыскивая ДП порево - Nifty Fifties Squirting DP Gang Bang

Обзор



Это двойное проникновение групповуха доказывает, что зрелые женщины все еще знают, как весело!

http://thumbnails115.imagebam.com/50610/002c1b506093360.jpg http://thumbnails116.imagebam.com/50610/6a67c7506093362.jpg http://thumbnails115.imagebam.com/50610/51de1f506093363.jpg http://thumbnails116.imagebam.com/50610/10afef506093364.jpg http://thumbnails115.imagebam.com/50610/40852d506093365.jpg http://thumbnails116.imagebam.com/50610/f2d83d506093366.jpg http://thumbnails115.imagebam.com/50610/5244ab506093367.jpg http://thumbnails115.imagebam.com/50610/16751d506093368.jpg

General
Complete name                  : C:UsersUserDownloadsAvsPhelpNifty Fifties Squirting DP Gang Bang.wmv
Format                         : Windows Media
File size                      : 467 MiB
Duration                       : 1h 3mn
Overall bit rate mode          : Constant
Overall bit rate               : 1 021 Kbps
Maximum Overall bit rate       : 1 027 Kbps
Encoded date                   : UTC 2007-12-29 08:12:22.975
Copyright                      : A.E.B.N.

Video
ID                             : 2
Format                         : VC-1
Format profile                 : Advanced@L1
Codec ID                       : WVC1
Codec ID/Hint                  : Microsoft
Description of the codec       : Windows Media Video 9 Advanced Profile
Duration                       : 1h 3mn
Bit rate mode                  : Constant
Bit rate                       : 951 Kbps
Width                          : 640 pixels
Height                         : 480 pixels
Display aspect ratio           : 4:3
Frame rate                     : 29.970 fps
Color space                    : YUV
Chroma subsampling             : 4:2:0
Bit depth                      : 8 bits
Scan type                      : Progressive
Compression mode               : Lossy
Bits/(Pixel*Frame)             : 0.103
Stream size                    : 435 MiB (93%)
Language                       : English (US)

Audio
ID                             : 1
Format                         : WMA
Format version                 : Version 2
Codec ID                       : 161
Codec ID/Info                  : Windows Media Audio
Description of the codec       : Windows Media Audio 9.2 -  64 kbps, 48 kHz, stereo (A/V) 1-pass CBR
Duration                       : 1h 3mn
Bit rate mode                  : Constant
Bit rate                       : 64.0 Kbps
Channel(s)                     : 2 channels
Sampling rate                  : 48.0 KHz
Bit depth                      : 16 bits
Stream size                    : 29.3 MiB (6%)
Language                       : English (US)

Размер466.59 MB (489,254,550 байт)
Скачать Стильные пятидесятые Впрыскивая ДП порево - Nifty Fifties Squirting DP Gang Bang

:: Отзывы



Отзывы отсутствуют.

 :: Отзывов нет
РЕГИСТРАЦИЯ.

Смотрите бесплатное порно или эротику

footerLeft
Информация для правообладателей На ёгли вы скачаете порно, бесплатные фильмы, а также новинки кино. Все это бесплатно и без смс.