Cкачать бесплатно фильмы.
Поиск фильмов
Log Pass забыли?
  Бесплатные фильмы
Скачать Стройшлюха на стройплощадке - Larin Lane (White Trash Whore 39)
КатегорияЖёсткое / Анал
Похожие фильмы



Похожие онлайн фильмы
Постер фильма Стройшлюха на стройплощадке - Larin Lane (White Trash Whore 39)
Стройшлюха на стройплощадке - Larin Lane (White Trash Whore 39)

Обзор



Похотливую суку выебали в обе дыры сразу на стройке работяги

http://thumbnails115.imagebam.com/50651/c8c41b506500496.jpg http://thumbnails115.imagebam.com/50651/b0afd9506500507.jpg http://thumbnails116.imagebam.com/50651/3f6fd4506500514.jpg http://thumbnails115.imagebam.com/50651/ee4fcf506500516.jpg http://thumbnails116.imagebam.com/50651/28f9f0506500522.jpg http://thumbnails116.imagebam.com/50651/d0ee29506500525.jpg http://thumbnails115.imagebam.com/50651/4bd88d506500532.jpg http://thumbnails115.imagebam.com/50651/f34b3f506500537.jpg

General
Complete name                  : C:UsersUserDownloadsAvsPhelpLarin Lane (White Trash Whore 39).mp4
Format                         : MPEG-4
Format profile                 : Base Media / Version 2
Codec ID                       : mp42
File size                      : 801 MiB
Duration                       : 28mn 37s
Overall bit rate mode          : Variable
Overall bit rate               : 3 913 Kbps
Encoded date                   : UTC 2012-12-15 14:08:50
Tagged date                    : UTC 2012-12-15 16:47:45
Writing application            : HandBrake 0.9.3 2008112300
Copyright                      : VideoBox

Video
ID                             : 1
Format                         : AVC
Format/Info                    : Advanced Video Codec
Format profile                 : High@L5.1
Format settings, CABAC         : Yes
Format settings, ReFrames      : 3 frames
Codec ID                       : avc1
Codec ID/Info                  : Advanced Video Coding
Duration                       : 28mn 37s
Bit rate                       : 3 872 Kbps
Width                          : 1 296 pixels
Height                         : 720 pixels
Display aspect ratio           : 16:9
Frame rate mode                : Variable
Frame rate                     : 29.970 fps
Minimum frame rate             : 29.959 fps
Maximum frame rate             : 30.000 fps
Color space                    : YUV
Chroma subsampling             : 4:2:0
Bit depth                      : 8 bits
Scan type                      : Progressive
Bits/(Pixel*Frame)             : 0.138
Stream size                    : 793 MiB (99%)
Writing library                : x264 core 65
Encoding settings              : cabac=1 / ref=3 / deblock=1:0:0 / analyse=0x3:0x133 / me=umh / subme=9 / psy_rd=1.0:1.0 / mixed_ref=1 / me_range=16 / chroma_me=1 / trellis=1 / 8x8dct=1 / cqm=0 / deadzone=21,11 / chroma_qp_offset=-4 / threads=12 / nr=150 / decimate=1 / mbaff=0 / bframes=6 / b_pyramid=1 / b_adapt=1 / b_bias=0 / direct=3 / wpredb=1 / keyint=30 / keyint_min=16 / scenecut=40(pre) / rc=abr / bitrate=3872 / ratetol=1.0 / qcomp=0.60 / qpmin=10 / qpmax=51 / qpstep=4 / ip_ratio=1.40 / pb_ratio=1.30 / aq=1:1.00
Encoded date                   : UTC 2012-12-15 14:08:50
Tagged date                    : UTC 2012-12-15 16:48:16
Color primaries                : BT.709
Transfer characteristics       : BT.709
Matrix coefficients            : BT.709
Color range                    : Limited

Audio
ID                             : 2
Format                         : AAC
Format/Info                    : Advanced Audio Codec
Format profile                 : LC
Codec ID                       : 40
Duration                       : 28mn 37s
Bit rate mode                  : Variable
Bit rate                       : 38.0 Kbps
Maximum bit rate               : 79.3 Kbps
Channel(s)                     : 1 channel
Channel positions              : Front: C
Sampling rate                  : 22.05 KHz
Compression mode               : Lossy
Stream size                    : 7.77 MiB (1%)
Language                       : English
Encoded date                   : UTC 2012-12-15 14:08:50
Tagged date                    : UTC 2012-12-15 16:48:16
Размер801.38 MB (840,303,338 байт)
Скачать Стройшлюха на стройплощадке - Larin Lane (White Trash Whore 39)

:: Отзывы



Отзывы отсутствуют.

 :: Отзывов нет
РЕГИСТРАЦИЯ.

Смотрите бесплатное порно или эротику

footerLeft
Информация для правообладателей На ёгли вы скачаете порно, бесплатные фильмы, а также новинки кино. Все это бесплатно и без смс.