Cкачать бесплатно фильмы.
Поиск фильмов
Log Pass забыли?
  Бесплатные фильмы
Скачать Тайны фантазии проститутки - Alura Jenson
КатегорияОргия / Зрелые / Груди
Похожие фильмы



Похожие онлайн фильмы
Постер фильма Тайны фантазии проститутки - Alura Jenson
Тайны фантазии проститутки - Alura Jenson

Обзор



Жопасто-сисястую блонду гэнг-бэнят как хотят


General
Complete name                            : C:UsersUserDownloadsAlura Jenson.mp4
Format                                   : MPEG-4
Codec ID                                 : M4V
File size                                : 471 MiB
Duration                                 : 1h 19mn
Overall bit rate mode                    : Variable
Overall bit rate                         : 832 Kbps
Encoded date                             : UTC 2014-10-15 17:57:00
Tagged date                              : UTC 2014-10-15 17:57:00

Video
ID                                       : 1
Format                                   : AVC
Format/Info                              : Advanced Video Codec
Format profile                           : Baseline@L3.1
Format settings, CABAC                   : No
Format settings, ReFrames                : 1 frame
Codec ID                                 : avc1
Codec ID/Info                            : Advanced Video Coding
Duration                                 : 1h 19mn
Bit rate mode                            : Constant
Bit rate                                 : 700 Kbps
Maximum bit rate                         : 1 293 Kbps
Width                                    : 640 pixels
Height                                   : 360 pixels
Display aspect ratio                     : 16:9
Frame rate mode                          : Constant
Frame rate                               : 29.970 fps
Color space                              : YUV
Chroma subsampling                       : 4:2:0
Bit depth                                : 8 bits
Scan type                                : Progressive
Bits/(Pixel*Frame)                       : 0.101
Stream size                              : 396 MiB (84%)
Encoded date                             : UTC 2014-10-15 17:57:00
Tagged date                              : UTC 2014-10-15 17:57:00

Audio
ID                                       : 2
Format                                   : AAC
Format/Info                              : Advanced Audio Codec
Format profile                           : LC
Codec ID                                 : 40
Duration                                 : 1h 19mn
Bit rate mode                            : Variable
Bit rate                                 : 128 Kbps
Maximum bit rate                         : 138 Kbps
Channel(s)                               : 2 channels
Channel positions                        : Front: L R
Sampling rate                            : 44.1 KHz
Compression mode                         : Lossy
Stream size                              : 71.2 MiB (15%)
Encoded date                             : UTC 2014-10-15 17:57:00
Tagged date                              : UTC 2014-10-15 17:57:00


http://i74.fastpic.ru/big/2015/1122/23/c6a18cc7008c1e31490555f0898ef323.gif http://i65.fastpic.ru/big/2015/1122/e5/e4811a98c6715a2a9bf1fd6b1a0eaae5.gif
http://i73.fastpic.ru/big/2015/1122/1d/fcad9ab138766d591dcbf9c1a0a3cf1d.gif http://i65.fastpic.ru/big/2015/1122/2c/b2defb0f4216ebf10ef9000c933fdd2c.gif


http://i67.fastpic.ru/big/2015/1122/d4/d6faf0768cb0f95d1c128d9b063b62d4.jpg
Размер471.32 MB (494,216,608 байт)
Скачать Тайны фантазии проститутки - Alura Jenson

:: ОТЗЫВЫ


button_offline Отзыв от AVE SATAN AS
avatar 854807

Скажи если не секрет,чем ты делал Gif :-O

button_offline Отзыв от lemann
avatar 3745

Круто! :w00t: :w00t: :w00t:

РЕГИСТРАЦИЯ.

Смотрите бесплатное порно или эротику

footerLeft
Информация для правообладателей На ёгли вы скачаете порно, бесплатные фильмы, а также новинки кино. Все это бесплатно и без смс.