Cкачать бесплатно фильмы.
Поиск фильмов
Log Pass забыли?
  Бесплатные фильмы
Скачать Танцующая шлюшка - Shay Hendrix
КатегорияДругое
Похожие фильмы



Похожие онлайн фильмы
Постер фильма Танцующая шлюшка - Shay Hendrix
Танцующая шлюшка - Shay Hendrix

Обзор



Шлюшка отплясывает под музычку в костюме кролика


General
Complete name                            : C:UsersUserDownloadsShay Hendrix.mp4
Format                                   : MPEG-4
Format profile                           : Base Media
Codec ID                                 : isom
File size                                : 85.4 MiB
Duration                                 : 5mn 42s
Overall bit rate mode                    : Variable
Overall bit rate                         : 2 088 Kbps
Writing application                      : Lavf56.25.101

Video
ID                                       : 1
Format                                   : AVC
Format/Info                              : Advanced Video Codec
Format profile                           : High@L3.1
Format settings, CABAC                   : Yes
Format settings, ReFrames                : 4 frames
Codec ID                                 : avc1
Codec ID/Info                            : Advanced Video Coding
Duration                                 : 5mn 42s
Bit rate                                 : 1 980 Kbps
Width                                    : 1 280 pixels
Height                                   : 720 pixels
Display aspect ratio                     : 16:9
Frame rate mode                          : Constant
Frame rate                               : 25.000 fps
Color space                              : YUV
Chroma subsampling                       : 4:2:0
Bit depth                                : 8 bits
Scan type                                : Progressive
Bits/(Pixel*Frame)                       : 0.086
Stream size                              : 80.9 MiB (95%)
Writing library                          : x264 core 142
Encoding settings                        : cabac=1 / ref=3 / deblock=1:0:0 / analyse=0x3:0x113 / me=hex / subme=7 / psy=1 / psy_rd=1.00:0.00 / mixed_ref=1 / me_range=16 / chroma_me=1 / trellis=1 / 8x8dct=1 / cqm=0 / deadzone=21,11 / fast_pskip=1 / chroma_qp_offset=-2 / threads=4 / lookahead_threads=1 / sliced_threads=0 / nr=0 / decimate=1 / interlaced=0 / bluray_compat=0 / constrained_intra=0 / bframes=3 / b_pyramid=2 / b_adapt=1 / b_bias=0 / direct=1 / weightb=1 / open_gop=0 / weightp=2 / keyint=25 / keyint_min=2 / scenecut=40 / intra_refresh=0 / rc_lookahead=25 / rc=2pass / mbtree=1 / bitrate=1980 / ratetol=1.0 / qcomp=0.60 / qpmin=0 / qpmax=69 / qpstep=4 / cplxblur=20.0 / qblur=0.5 / ip_ratio=1.40 / aq=1:1.00

Audio
ID                                       : 2
Format                                   : AAC
Format/Info                              : Advanced Audio Codec
Format profile                           : LC
Codec ID                                 : 40
Duration                                 : 5mn 42s
Duration_LastFrame                       : -4ms
Bit rate mode                            : Variable
Bit rate                                 : 102 Kbps
Maximum bit rate                         : 192 Kbps
Channel(s)                               : 2 channels
Channel positions                        : Front: L R
Sampling rate                            : 44.1 KHz
Compression mode                         : Lossy
Stream size                              : 4.16 MiB (5%)


http://i67.fastpic.ru/thumb/2015/1102/ae/144afb69b991b1eba543a27dd4e32fae.jpeg http://i67.fastpic.ru/thumb/2015/1102/c1/049f9d58d292a72fc2f172a0d091a2c1.jpeg http://i67.fastpic.ru/thumb/2015/1102/31/d58d2fd9aef35d2e4ba9e0d2fba97831.jpeg http://i67.fastpic.ru/thumb/2015/1102/e2/e63e10eaffd4e68d3ca21fdce69749e2.jpeg
Размер85.39 MB (89,534,122 байт)
Скачать Танцующая шлюшка - Shay Hendrix

:: Отзывы



Отзывы отсутствуют.

 :: Отзывов нет
РЕГИСТРАЦИЯ.

Смотрите бесплатное порно или эротику

footerLeft
Информация для правообладателей На ёгли вы скачаете порно, бесплатные фильмы, а также новинки кино. Все это бесплатно и без смс.