Cкачать бесплатно фильмы.
Поиск фильмов
Log Pass забыли?
  Бесплатные фильмы
Скачать Трансформеры 3: Тёмная сторона Луны , Transformers: Dark of the Moonn 720p [2011 | HDTV]
КатегорияБоевик / Приключения
Похожие фильмы



Похожие онлайн фильмы
Постер фильма Трансформеры 3: Тёмная сторона Луны , Transformers: Dark of the Moonn 720p [2011 | HDTV]
Трансформеры 3: Тёмная сторона Луны ,  Transformers: Dark of the Moonn 720p [2011 | HDTV]

Трэйлер


3H8bnKdf654&feature=player_embedded

Обзор



Название: Трансформеры 3: Тёмная сторона Луны
Оригинальное название:  Transformers: Dark of the Moonn 720p
Год выхода: 2011
Режиссер: Майкл Бэй
В ролях: Шайа ла Баф, Джош Дюамель, Джон Туртурро, Тайриз Гибсон, Роузи Хантингтон-Уайтли, Патрик Демпси, Кевин Данн, Джули Уайт, Хьюго Уивинг, Кен Жонг, Джон Малкович и др.
Продолжительность:  02:34:23
Язык: Русский Профессиональный (полное дублирование)

О фильме:
«Последний шанс цивилизации»

Для наших героев наступили печальные будни: Сэм потерял Микаэлу, правительство выпускает законодательный акт о выселении Автоботов с Земли, а пока Мегатрон скрывается после позорного поражения Фоллена, десептикон Шокуэйв, правитель Кибертрона, готовится нанести визит нашей планете с совсем не добрыми намерениями. Действие заключительной части трилогии на этот раз охватит не только Землю, но и Луну, темная сторона которой хранит не менее темные тайны.


http://s017.radikal.ru/i400/1112/a8/ff76ca9353fe.gif



http://thumbnails63.imagebam.com/16663/9e0e53166625618.jpg http://thumbnails63.imagebam.com/16663/73b257166625625.jpg http://thumbnails28.imagebam.com/16663/e0b1a9166625630.jpg http://thumbnails53.imagebam.com/16663/9ab2fa166625639.jpg http://thumbnails55.imagebam.com/16663/0274cd166625643.jpg http://thumbnails27.imagebam.com/16663/bc3763166625648.jpg http://thumbnails51.imagebam.com/16663/6b39e3166625652.jpg http://thumbnails61.imagebam.com/16663/260639166625655.jpg



INFO AUDIO

Audio #1
ID                               : 2
Format                           : AC-3
Format/Info                      : Audio Coding 3
Format_Settings_ModeExtension    : CM (complete main)
Codec ID                         : A_AC3
Duration                         : 2h 34mn
Bit rate mode                    : Constant
Bit rate                         : 640 Kbps
Channel(s)                       : 6 channels
Channel positions                : Front: L C R, Side: L R, LFE
Sampling rate                    : 48.0 KHz
Stream size                      : 707 MiB (4%)
Title                            : BD CEE
Language                         : Russian

Audio #2
ID                               : 3
Format                           : DTS
Format/Info                      : Digital Theater Systems
Codec ID                         : A_DTS
Duration                         : 2h 34mn
Bit rate mode                    : Constant
Bit rate                         : 1 510 Kbps
Channel(s)                       : 6 channels
Channel positions                : Front: L C R, Side: L R, LFE
Sampling rate                    : 48.0 KHz
Resolution                       : 24 bits
Video delay                      : 11ms
Stream size                      : 1.63 GiB (10%)
Title                            : |Двухголосый закадровый, BBC Spb (proper)|
Language                         : Russian

Audio #3
ID                               : 4
Format                           : DTS
Format/Info                      : Digital Theater Systems
Codec ID                         : A_DTS
Duration                         : 2h 34mn
Bit rate mode                    : Constant
Bit rate                         : 1 510 Kbps
Channel(s)                       : 6 channels
Channel positions                : Front: L C R, Side: L R, LFE
Sampling rate                    : 48.0 KHz
Resolution                       : 24 bits
Video delay                      : 11ms
Stream size                      : 1.63 GiB (10%)
Title                            : |Одноголосый закадровый, Ю.Сербин (proper)|
Language                         : Russian

Audio #4
ID                               : 5
Format                           : DTS
Format/Info                      : Digital Theater Systems
Format profile                   : ES
Codec ID                         : A_DTS
Duration                         : 2h 34mn
Bit rate mode                    : Constant
Bit rate                         : 1 510 Kbps
Channel(s)                       : 7 channels
Channel positions                : Front: L C R, Side: L R, Back: C, LFE
Sampling rate                    : 48.0 KHz
Resolution                       : 24 bits
Video delay                      : 11ms
Stream size                      : 1.63 GiB (10%)


http://s42.radikal.ru/i095/1112/79/d1d67ef78403.gif


http://s011.radikal.ru/i318/1112/05/36b3cd8cfa48.png  


ФАЙЛ
Качество: HDTV
Видео: 1280x534 at 23.976 fps, x264 @ L4.1, 2pass, ~9567 kbps avg
Звук: Аудио#1: Russian: 48 kHz, AC3, 3/2 (L,C,R,l,r) + LFE ch, ~640.00 kbps avg |Дубляж, BD CEE| Аудио#2: Russian: 48 kHz, DTS, 3/2 (L,C,R,l,r) + LFE ch, ~1536.00 kbps avg |Одноголосый закадровый, Ю.Сербин (proper)| Аудио#3: Russian: 48 kHz, DTS, 3/2 (L,C,R,l,r) + LFE ch, ~1536.00 kbps avg |Двухголосый закадровый, BBC Spb (proper)| Аудио#4: English: 48 kHz, DTS, 3/2 (L,C,R,l,r) + LFE ch, ~1536.00 kbps avg  
Размер15.90 GB (17,067,550,540 байт)
Скачать Трансформеры 3: Тёмная сторона Луны , Transformers: Dark of the Moonn 720p [2011 | HDTV]

:: ОТЗЫВЫ


button_offline Отзыв от Grigorii
avatar 39547

Вот именно иногда хочется себя по баловать хорошем качеством , блогодарчик !!!

button_offline Отзыв от dohlii
avatar 800063

за фильм спасибо нажал, но уж очень много занимает

РЕГИСТРАЦИЯ.

Смотрите бесплатное порно или эротику

footerLeft
Информация для правообладателей На ёгли вы скачаете порно, бесплатные фильмы, а также новинки кино. Все это бесплатно и без смс.