Cкачать бесплатно фильмы.
Поиск фильмов
Log Pass забыли?
  Бесплатные фильмы
Скачать Трах в розовых тонах - Britney Brooks
КатегорияКлассика
Похожие фильмы



Похожие онлайн фильмы
Постер фильма Трах в розовых тонах - Britney Brooks
Трах в розовых тонах - Britney Brooks

Обзор



Симпотную лярвочку ебут на кровати с розовым бельем


General
Complete name                            : C:UsersUserDownloadsBritney Brooks.mp4
Format                                   : MPEG-4
Format profile                           : Base Media
Codec ID                                 : isom
File size                                : 242 MiB
Duration                                 : 25mn 30s
Overall bit rate mode                    : Variable
Overall bit rate                         : 1 327 Kbps
Encoded date                             : UTC 2013-12-04 10:36:39
Tagged date                              : UTC 2013-12-04 10:36:39

Video
ID                                       : 1
Format                                   : AVC
Format/Info                              : Advanced Video Codec
Format profile                           : Main@L3.1
Format settings, CABAC                   : Yes
Format settings, ReFrames                : 8 frames
Codec ID                                 : avc1
Codec ID/Info                            : Advanced Video Coding
Duration                                 : 25mn 30s
Bit rate                                 : 1 261 Kbps
Maximum bit rate                         : 2 581 Kbps
Width                                    : 854 pixels
Height                                   : 480 pixels
Display aspect ratio                     : 16:9
Frame rate mode                          : Constant
Frame rate                               : 25.000 fps
Color space                              : YUV
Chroma subsampling                       : 4:2:0
Bit depth                                : 8 bits
Scan type                                : Progressive
Bits/(Pixel*Frame)                       : 0.123
Stream size                              : 230 MiB (95%)
Writing library                          : Zencoder Video Encoding System
Encoded date                             : UTC 2013-12-04 10:27:26
Tagged date                              : UTC 2013-12-04 10:36:40

Audio
ID                                       : 2
Format                                   : AAC
Format/Info                              : Advanced Audio Codec
Format profile                           : LC
Codec ID                                 : 40
Duration                                 : 25mn 30s
Bit rate mode                            : Variable
Bit rate                                 : 64.0 Kbps
Maximum bit rate                         : 69.3 Kbps
Channel(s)                               : 1 channel
Channel positions                        : Front: C
Sampling rate                            : 48.0 KHz
Compression mode                         : Lossy
Stream size                              : 11.7 MiB (5%)
Encoded date                             : UTC 2013-12-04 10:36:39
Tagged date                              : UTC 2013-12-04 10:36:40


http://i76.fastpic.ru/thumb/2015/1102/0f/9f824fcffb50205f9f6551a397a4a70f.jpeg http://i76.fastpic.ru/thumb/2015/1102/75/152583f5266d254eafcbe7fbedbffa75.jpeg http://i76.fastpic.ru/thumb/2015/1102/3d/20fb74fc6eddb6c95bcfda38f805503d.jpeg http://i76.fastpic.ru/thumb/2015/1102/01/e1386e4de75d2250a03fd4d4aa0d3601.jpeg
Размер242.13 MB (253,890,622 байт)
Скачать Трах в розовых тонах - Britney Brooks

:: Отзывы



Отзывы отсутствуют.

 :: Отзывов нет
РЕГИСТРАЦИЯ.

Смотрите бесплатное порно или эротику

footerLeft
Информация для правообладателей На ёгли вы скачаете порно, бесплатные фильмы, а также новинки кино. Все это бесплатно и без смс.