Cкачать бесплатно фильмы.
Поиск фильмов
Log Pass забыли?
  Бесплатные фильмы
Скачать Убойные каникулы , Tucker & Dale vs Evil 720p [2010 | HDTV]
КатегорияКомедия / Ужасы
Похожие фильмы



Похожие онлайн фильмы
Постер фильма Убойные каникулы , Tucker & Dale vs Evil 720p [2010 | HDTV]
Убойные каникулы  , Tucker & Dale vs Evil 720p [2010 | HDTV]
Фото фильма Убойные каникулы , Tucker & Dale vs Evil 720p [2010 | HDTV]
Убойные каникулы  , Tucker & Dale vs Evil 720p [2010 | HDTV]

Трэйлер


ygE8SGRylWw&feature=player_embedded

Обзор



Название: Убойные каникулы  
Оригинальное название: Tucker & Dale vs Evil 720p
Год выхода: 2010
Режиссер: Эли Крэйг
В ролях:  Тайлер Лэбин, Алан Тьюдик, Кэти Боуден, Джесси Мосс, Филип Грэйнджер, Брэндон Джей МакЛарен, Кристи Лэйн, Челан Симмонс, Трэвис Нельсон, Алекс Арсено
Продолжительность: 01:28:34
Язык: Русский Профессиональный (полное дублирование)

Группа студентов колледжа отправляется за город, чтобы вовсю оторваться на выходных: попить пивка, поплавать в озере и подышать чистым лесным воздухом. Но уже в первый день они сталкиваются с неотесанными фермерами Такером и Дэйлом, также решившими как следует оттянуться на природе. Приняв этих диковатых, но, в сущности, симпатичных ребят за «злобных местных», горожане решают дать деревенщине жесткий отпор. Но с каждым их шагом становится только хуже…


http://s017.radikal.ru/i400/1112/a8/ff76ca9353fe.gif


http://thumbnails12.imagebam.com/16732/2d730b167313177.jpg http://thumbnails41.imagebam.com/16732/81563e167313193.jpg http://thumbnails31.imagebam.com/16732/efff25167313211.jpg http://thumbnails36.imagebam.com/16732/72efd3167313231.jpg http://thumbnails28.imagebam.com/16732/2c820a167313239.jpg http://thumbnails55.imagebam.com/16732/bbcacf167313256.jpg http://thumbnails17.imagebam.com/16732/2c56ec167313264.jpg http://thumbnails28.imagebam.com/16732/e398f5167313273.jpg


INFO AUDIO!

Audio #1
ID                              : 2
Format                          : DTS
Format/Info                      : Digital Theater Systems
Codec ID                        : A_DTS
Duration                        : 1h 28mn
Bit rate mode                    : Constant
Bit rate                        : 1 510 Kbps
Channel(s)                      : 6 channels
Channel positions                : Front: L C R, Side: L R, LFE
Sampling rate                    : 48.0 KHz
Bit depth                        : 24 bits
Stream size                      : 956 MiB (18%)
Title                            : Дубляж R5
Language                        : Russian

Audio #2
ID                              : 3
Format                          : DTS
Format/Info                      : Digital Theater Systems
Codec ID                        : A_DTS
Duration                        : 1h 28mn
Bit rate mode                    : Constant
Bit rate                        : 1 510 Kbps
Channel(s)                      : 6 channels
Channel positions                : Front: L C R, Side: L R, LFE
Sampling rate                    : 48.0 KHz
Bit depth                        : 24 bits
Stream size                      : 956 MiB (18%)
Title                            : Оригинал DTS 1536 kbps


http://s42.radikal.ru/i095/1112/79/d1d67ef78403.gif


http://s011.radikal.ru/i318/1112/05/36b3cd8cfa48.png

ФАЙЛ
Качество: HDTV
Видео: AVC, 1280x544, 23.976 fps, 5 346 Kbps  
Звук: Russian|English: DTS, 1510 kb/s (6 ch), 48.0 KHz
Размер5.30 GB (5,692,779,561 байт)
Скачать Убойные каникулы , Tucker & Dale vs Evil 720p [2010 | HDTV]

:: ОТЗЫВЫ


button_offline Отзыв от Lexxuse3000
avatar 371563

Всем советую посмотреть, фильмец угарный 10+ !!!!!

button_offline Отзыв от Lexxuse3000
avatar 371563

Всем советую посмотреть, фильмец угарный 10+ !!!!!

button_offline Отзыв от Sharki
avatar 366143

....самоубиваются по всей делянке.... :-D :weirdo: :-D

button_offline Отзыв от Sharki
avatar 366143

[Eoglimen] Ну да,так даже полезней..... :-D :weirdo: :-D

button_offline Отзыв от Sprinter777
avatar 836184

Реально ржачное кино.

РЕГИСТРАЦИЯ.

Смотрите бесплатное порно или эротику

footerLeft
Информация для правообладателей На ёгли вы скачаете порно, бесплатные фильмы, а также новинки кино. Все это бесплатно и без смс.