Cкачать бесплатно фильмы.
Поиск фильмов
Log Pass забыли?
  Бесплатные фильмы
Скачать Училка оказалась проституткой - Phoenix Marie
КатегорияОргия / Зрелые / Анал / Груди
Похожие фильмы



Похожие онлайн фильмы
Постер фильма Училка оказалась проституткой - Phoenix Marie
Училка оказалась проституткой - Phoenix Marie

Обзор



Строгая и требовательная училка по истории дала в обе дырки сразу по предложению физрука и командира футбольной команды


General
Complete name                            : C:UsersUserDownloadsPhoenix Marie.mp4
Format                                   : MPEG-4
Format profile                           : Base Media
Codec ID                                 : isom
File size                                : 342 MiB
Duration                                 : 31mn 8s
Overall bit rate                         : 1 536 Kbps
Encoded date                             : UTC 2013-06-04 23:56:51
Tagged date                              : UTC 2013-06-04 23:56:51
Writing application                      : Lavf53.32.100

Video
ID                                       : 1
Format                                   : AVC
Format/Info                              : Advanced Video Codec
Format profile                           : High@L3.0
Format settings, CABAC                   : Yes
Format settings, ReFrames                : 4 frames
Codec ID                                 : avc1
Codec ID/Info                            : Advanced Video Coding
Duration                                 : 31mn 7s
Bit rate                                 : 1 400 Kbps
Width                                    : 854 pixels
Height                                   : 480 pixels
Display aspect ratio                     : 16:9
Frame rate mode                          : Constant
Frame rate                               : 30.000 fps
Color space                              : YUV
Chroma subsampling                       : 4:2:0
Bit depth                                : 8 bits
Scan type                                : Progressive
Bits/(Pixel*Frame)                       : 0.114
Stream size                              : 312 MiB (91%)
Writing library                          : x264 core 120
Encoding settings                        : cabac=1 / ref=4 / deblock=1:0:0 / analyse=0x3:0x113 / me=umh / subme=7 / psy=0 / mixed_ref=1 / me_range=16 / chroma_me=1 / trellis=1 / 8x8dct=1 / cqm=0 / deadzone=21,11 / fast_pskip=0 / chroma_qp_offset=0 / threads=48 / sliced_threads=0 / nr=0 / decimate=1 / interlaced=0 / bluray_compat=0 / constrained_intra=0 / bframes=16 / b_pyramid=2 / b_adapt=1 / b_bias=0 / direct=3 / weightb=1 / open_gop=0 / weightp=2 / keyint=300 / keyint_min=25 / scenecut=40 / intra_refresh=0 / rc=2pass / mbtree=0 / bitrate=1400 / ratetol=1.0 / qcomp=0.60 / qpmin=10 / qpmax=51 / qpstep=4 / cplxblur=20.0 / qblur=0.5 / ip_ratio=1.40 / pb_ratio=1.30 / aq=1:1.00
Language                                 : English
Encoded date                             : UTC 2013-06-04 23:56:51
Tagged date                              : UTC 2013-06-04 23:56:51

Audio
ID                                       : 2
Format                                   : AAC
Format/Info                              : Advanced Audio Codec
Format profile                           : LC
Codec ID                                 : 40
Duration                                 : 31mn 8s
Bit rate mode                            : Constant
Bit rate                                 : 128 Kbps
Channel(s)                               : 2 channels
Channel positions                        : Front: L R
Sampling rate                            : 44.1 KHz
Compression mode                         : Lossy
Stream size                              : 28.5 MiB (8%)
Language                                 : English
Encoded date                             : UTC 2013-06-04 23:56:51
Tagged date                              : UTC 2013-06-04 23:56:51


http://i67.fastpic.ru/big/2015/1117/0b/efd55f1395f6de4b1383ff2f2e83860b.gif http://i74.fastpic.ru/big/2015/1117/a5/3fef5f43b235f82725a987727cbc31a5.gif
http://i74.fastpic.ru/big/2015/1117/16/b826434a6bccd694ead436556d0a0a16.gif http://i73.fastpic.ru/big/2015/1117/84/839f5c34539bebff5f84ef2559101b84.gif
http://i73.fastpic.ru/big/2015/1117/d6/ef9be624b838ace74aa3d5718799c5d6.gif http://i73.fastpic.ru/big/2015/1117/87/86d6dbb73487a6a62eae0bd719b88987.gif


http://i66.fastpic.ru/big/2015/1117/a9/2557d5abb4504f4abc030621d5e34fa9.jpg
Размер341.96 MB (358,569,020 байт)
Скачать Училка оказалась проституткой - Phoenix Marie

:: Отзывы



Отзывы отсутствуют.

 :: Отзывов нет
РЕГИСТРАЦИЯ.

Смотрите бесплатное порно или эротику

footerLeft
Информация для правообладателей На ёгли вы скачаете порно, бесплатные фильмы, а также новинки кино. Все это бесплатно и без смс.