Cкачать бесплатно фильмы.
Поиск фильмов
Log Pass забыли?
  Бесплатные фильмы
Скачать Факультатив - Holly Halston & Callie Calypso
КатегорияОргия / Зрелые / Молодые / Груди
Похожие фильмы



Похожие онлайн фильмы
Постер фильма Факультатив - Holly Halston & Callie Calypso
Факультатив - Holly Halston & Callie Calypso

Обзор



Похотливая училка оставляет двоечницу на внеурочные занятиия


General
Complete name                            : C:UsersUserDownloadsHolly Halston & Callie Calypso.mp4
Format                                   : MPEG-4
Format profile                           : Base Media
Codec ID                                 : isom
File size                                : 249 MiB
Duration                                 : 35mn 5s
Overall bit rate mode                    : Variable
Overall bit rate                         : 991 Kbps
Writing application                      : Lavf54.29.104

Video
ID                                       : 1
Format                                   : AVC
Format/Info                              : Advanced Video Codec
Format profile                           : Main@L3.0
Format settings, CABAC                   : Yes
Format settings, ReFrames                : 3 frames
Codec ID                                 : avc1
Codec ID/Info                            : Advanced Video Coding
Duration                                 : 35mn 5s
Bit rate                                 : 900 Kbps
Width                                    : 640 pixels
Height                                   : 360 pixels
Display aspect ratio                     : 16:9
Frame rate mode                          : Constant
Frame rate                               : 30.000 fps
Color space                              : YUV
Chroma subsampling                       : 4:2:0
Bit depth                                : 8 bits
Scan type                                : Progressive
Bits/(Pixel*Frame)                       : 0.130
Stream size                              : 226 MiB (91%)
Writing library                          : x264 core 120
Encoding settings                        : cabac=1 / ref=3 / deblock=1:0:0 / analyse=0x1:0x111 / me=hex / subme=6 / psy=1 / psy_rd=1.00:0.00 / mixed_ref=1 / me_range=16 / chroma_me=1 / trellis=1 / 8x8dct=0 / cqm=0 / deadzone=21,11 / fast_pskip=1 / chroma_qp_offset=-2 / threads=48 / sliced_threads=0 / nr=0 / decimate=1 / interlaced=0 / bluray_compat=0 / constrained_intra=0 / bframes=3 / b_pyramid=0 / b_adapt=1 / b_bias=0 / direct=1 / weightb=1 / open_gop=0 / weightp=2 / keyint=150 / keyint_min=25 / scenecut=40 / intra_refresh=0 / rc_lookahead=40 / rc=2pass / mbtree=1 / bitrate=900 / ratetol=1.0 / qcomp=0.60 / qpmin=10 / qpmax=51 / qpstep=4 / cplxblur=20.0 / qblur=0.5 / ip_ratio=1.41 / aq=1:1.00
Language                                 : English

Audio
ID                                       : 2
Format                                   : AAC
Format/Info                              : Advanced Audio Codec
Format profile                           : LC
Codec ID                                 : 40
Duration                                 : 35mn 5s
Duration_LastFrame                       : -16ms
Bit rate mode                            : Variable
Bit rate                                 : 82.4 Kbps
Maximum bit rate                         : 96.0 Kbps
Channel(s)                               : 2 channels
Channel positions                        : Front: L R
Sampling rate                            : 44.1 KHz
Compression mode                         : Lossy
Stream size                              : 20.7 MiB (8%)
Language                                 : English


http://i73.fastpic.ru/big/2015/1127/f9/75665effe01fae0eb5632d49c80135f9.gif http://i74.fastpic.ru/big/2015/1127/a5/9fe55e1de34e8bd2c768838f5c409ba5.gif
http://i66.fastpic.ru/big/2015/1127/41/df2fe13b56414ebebc161a9473f59941.gif


http://i73.fastpic.ru/big/2015/1127/80/caa5ef6e99ca426604dc0b47c2127780.jpg
Размер248.62 MB (260,694,701 байт)
Скачать Факультатив - Holly Halston & Callie Calypso

:: Отзывы



Отзывы отсутствуют.

 :: Отзывов нет
РЕГИСТРАЦИЯ.

Смотрите бесплатное порно или эротику

footerLeft
Информация для правообладателей На ёгли вы скачаете порно, бесплатные фильмы, а также новинки кино. Все это бесплатно и без смс.