Cкачать бесплатно фильмы.
Поиск фильмов
Log Pass забыли?
  Бесплатные фильмы
Скачать Французские манеры - Anissa Kate
КатегорияОргия / Зрелые / Анал / Груди
Похожие фильмы



Похожие онлайн фильмы
Постер фильма Французские манеры - Anissa Kate
Французские манеры - Anissa Kate

Обзор



На мягком белом диване дуплят французскую шлюху


General
Complete name                            : C:UsersUserDownloadsAnissa Kate.m4v
Format                                   : MPEG-4
Format profile                           : Base Media
Codec ID                                 : isom
File size                                : 435 MiB
Duration                                 : 40mn 30s
Overall bit rate mode                    : Variable
Overall bit rate                         : 1 503 Kbps
Encoded date                             : UTC 2012-11-06 07:17:58
Tagged date                              : UTC 2012-11-06 07:17:58

Video
ID                                       : 1
Format                                   : AVC
Format/Info                              : Advanced Video Codec
Format profile                           : High@L4.1
Format settings, CABAC                   : Yes
Format settings, ReFrames                : 5 frames
Codec ID                                 : avc1
Codec ID/Info                            : Advanced Video Coding
Duration                                 : 40mn 30s
Bit rate                                 : 1 435 Kbps
Width                                    : 854 pixels
Height                                   : 480 pixels
Display aspect ratio                     : 16:9
Frame rate mode                          : Constant
Frame rate                               : 23.976 fps
Color space                              : YUV
Chroma subsampling                       : 4:2:0
Bit depth                                : 8 bits
Scan type                                : Progressive
Bits/(Pixel*Frame)                       : 0.146
Stream size                              : 416 MiB (95%)
Encoded date                             : UTC 1970-01-01 00:00:00
Tagged date                              : UTC 2012-11-06 07:19:32

Audio
ID                                       : 2
Format                                   : AAC
Format/Info                              : Advanced Audio Codec
Format profile                           : LC
Codec ID                                 : 40
Duration                                 : 40mn 30s
Bit rate mode                            : Variable
Bit rate                                 : 64.2 Kbps
Channel(s)                               : 2 channels
Channel positions                        : Front: L R
Sampling rate                            : 48.0 KHz
Compression mode                         : Lossy
Stream size                              : 18.6 MiB (4%)
Encoded date                             : UTC 1970-01-01 00:00:00
Tagged date                              : UTC 2012-11-06 07:19:32


http://i66.fastpic.ru/big/2015/1126/f2/e7ed56264040f072c97ce43b848a5ef2.gif http://i66.fastpic.ru/big/2015/1126/8a/7de0b38b72b9ff8669daf5e0fea1dd8a.gif
http://i74.fastpic.ru/big/2015/1126/47/6ada4cadd412ab10f0f4f88cf9185847.gif http://i73.fastpic.ru/big/2015/1126/97/ee0f63152fdd220c40faecc3dd358b97.gif


http://i74.fastpic.ru/big/2015/1126/88/f74c8c4ac7f5f0d54f2c22f393249888.jpg
Размер435.41 MB (456,559,923 байт)
Скачать Французские манеры - Anissa Kate

:: Отзывы



Отзывы отсутствуют.

 :: Отзывов нет
РЕГИСТРАЦИЯ.

Смотрите бесплатное порно или эротику

footerLeft
Информация для правообладателей На ёгли вы скачаете порно, бесплатные фильмы, а также новинки кино. Все это бесплатно и без смс.