Cкачать бесплатно фильмы.
Поиск фильмов
Log Pass забыли?
  Бесплатные фильмы
Скачать Хорошо в деревне летом - Puma Swede
КатегорияГруди / Зрелые
Похожие фильмы



Похожие онлайн фильмы
Постер фильма Хорошо в деревне летом - Puma Swede
Хорошо в деревне летом - Puma Swede

Обзор



Сисястая шлюха ебется вдалеке от городской суеты


General
Complete name                            : C:UsersUserDownloadsPuma Swede.mp4
Format                                   : MPEG-4
Format profile                           : Base Media
Codec ID                                 : isom
File size                                : 361 MiB
Duration                                 : 25mn 52s
Overall bit rate                         : 1 950 Kbps
Writing application                      : Lavf54.59.106

Video
ID                                       : 1
Format                                   : AVC
Format/Info                              : Advanced Video Codec
Format profile                           : High@L3.1
Format settings, CABAC                   : Yes
Format settings, ReFrames                : 4 frames
Codec ID                                 : avc1
Codec ID/Info                            : Advanced Video Coding
Duration                                 : 25mn 52s
Bit rate                                 : 1 800 Kbps
Width                                    : 1 280 pixels
Height                                   : 720 pixels
Display aspect ratio                     : 16:9
Frame rate mode                          : Constant
Frame rate                               : 25.000 fps
Color space                              : YUV
Chroma subsampling                       : 4:2:0
Bit depth                                : 8 bits
Scan type                                : Progressive
Bits/(Pixel*Frame)                       : 0.078
Stream size                              : 336 MiB (93%)
Writing library                          : x264 core 129
Encoding settings                        : cabac=1 / ref=3 / deblock=1:0:0 / analyse=0x3:0x113 / me=hex / subme=7 / psy=1 / psy_rd=1.00:0.00 / mixed_ref=1 / me_range=16 / chroma_me=1 / trellis=1 / 8x8dct=1 / cqm=0 / deadzone=21,11 / fast_pskip=1 / chroma_qp_offset=-2 / threads=24 / lookahead_threads=4 / sliced_threads=0 / nr=0 / decimate=1 / interlaced=0 / bluray_compat=0 / constrained_intra=0 / bframes=3 / b_pyramid=2 / b_adapt=1 / b_bias=0 / direct=1 / weightb=1 / open_gop=0 / weightp=2 / keyint=250 / keyint_min=25 / scenecut=40 / intra_refresh=0 / rc_lookahead=40 / rc=abr / mbtree=1 / bitrate=1800 / ratetol=1.0 / qcomp=0.60 / qpmin=0 / qpmax=69 / qpstep=4 / ip_ratio=1.40 / aq=1:1.00

Audio
ID                                       : 2
Format                                   : AAC
Format/Info                              : Advanced Audio Codec
Format profile                           : LC
Codec ID                                 : 40
Duration                                 : 25mn 52s
Bit rate mode                            : Constant
Bit rate                                 : 128 Kbps
Channel(s)                               : 2 channels
Channel positions                        : Front: L R
Sampling rate                            : 44.1 KHz
Compression mode                         : Lossy
Stream size                              : 23.7 MiB (7%)


http://i73.fastpic.ru/big/2015/1127/4b/42629c685dde5095766d058784fbb44b.gif http://i65.fastpic.ru/big/2015/1127/f4/1ae5a20453f72b8652c3d7b13c6672f4.gif
http://i73.fastpic.ru/big/2015/1127/88/b57b674776b37adf79798d2d65c5f488.gif http://i74.fastpic.ru/big/2015/1127/a4/655c2d9bdf9e79cf941a2584c173d8a4.gif
http://i73.fastpic.ru/big/2015/1127/c6/76c25a9a18a8e48ff2c2569d21a210c6.gif http://i76.fastpic.ru/big/2015/1127/2b/62b6a59bd6729f4b5cef1f7aa42a7d2b.gif
http://i67.fastpic.ru/big/2015/1127/45/579781b3249ea63cddfb6cae43920b45.gif http://i67.fastpic.ru/big/2015/1127/c7/67cbd23e5404cf0cfd1f09c33a5abac7.gif


http://i65.fastpic.ru/big/2015/1127/07/52940c0c51315a0c78485af669281e07.jpg
Размер360.88 MB (378,405,002 байт)
Скачать Хорошо в деревне летом - Puma Swede

:: Отзывы



Отзывы отсутствуют.

 :: Отзывов нет
РЕГИСТРАЦИЯ.

Смотрите бесплатное порно или эротику

footerLeft
Информация для правообладателей На ёгли вы скачаете порно, бесплатные фильмы, а также новинки кино. Все это бесплатно и без смс.