Cкачать бесплатно фильмы.
Поиск фильмов
Log Pass забыли?
  Бесплатные фильмы
Скачать Хуй ровестника не ищет - Emma Starr
КатегорияАнал / Зрелые / Груди
Похожие фильмы



Похожие онлайн фильмы
Постер фильма Хуй ровестника не ищет - Emma Starr
Хуй ровестника не ищет - Emma Starr

Обзор



Зрелой проститутке захотелось молодого в своей жопе


General
Complete name                            : C:UsersUserDownloadsEmma Starr.wmv
Format                                   : Windows Media
File size                                : 413 MiB
Duration                                 : 28mn 5s
Overall bit rate mode                    : Variable
Overall bit rate                         : 2 057 Kbps
Maximum Overall bit rate                 : 2 562 Kbps
Encoded date                             : UTC 2008-12-03 21:28:16.232

Video
ID                                       : 2
Format                                   : VC-1
Format profile                           : MP@HL
Codec ID                                 : WMV3
Codec ID/Info                            : Windows Media Video 9
Codec ID/Hint                            : WMV3
Description of the codec                 : Windows Media Video 9 - Professional
Duration                                 : 28mn 5s
Bit rate mode                            : Variable
Bit rate                                 : 2 000 Kbps
Width                                    : 720 pixels
Height                                   : 540 pixels
Display aspect ratio                     : 4:3
Frame rate                               : 29.970 fps
Color space                              : YUV
Chroma subsampling                       : 4:2:0
Bit depth                                : 8 bits
Scan type                                : Progressive
Compression mode                         : Lossy
Bits/(Pixel*Frame)                       : 0.172
Stream size                              : 402 MiB (97%)
Language                                 : English (US)

Audio
ID                                       : 1
Format                                   : WMA
Format version                           : Version 2
Codec ID                                 : 161
Codec ID/Info                            : Windows Media Audio
Description of the codec                 : Windows Media Audio 9.2 -  48 kbps, 44 kHz, mono 2-pass CBR
Duration                                 : 28mn 5s
Bit rate mode                            : Constant
Bit rate                                 : 48.0 Kbps
Channel(s)                               : 1 channel
Sampling rate                            : 44.1 KHz
Bit depth                                : 16 bits
Stream size                              : 9.65 MiB (2%)
Language                                 : English (US)


http://i74.fastpic.ru/big/2015/1127/bd/1b1f7ec1a9e64df0f84ca6cbd04959bd.gif http://i65.fastpic.ru/big/2015/1127/ec/597c67e29ab61f3c2a77e077493c75ec.gif
http://i75.fastpic.ru/big/2015/1127/ed/6e2a5f52bf3e95c3d0a7b6e44cd40ded.gif http://i67.fastpic.ru/big/2015/1127/c3/c304845eb0e1f237a6bf3a5e4f3940c3.gif


http://i65.fastpic.ru/big/2015/1127/d4/90f660fb5577be58129c799d7b75e1d4.jpg
Размер413.25 MB (433,327,505 байт)
Скачать Хуй ровестника не ищет - Emma Starr

:: Отзывы



Отзывы отсутствуют.

 :: Отзывов нет
РЕГИСТРАЦИЯ.

Смотрите бесплатное порно или эротику

footerLeft
Информация для правообладателей На ёгли вы скачаете порно, бесплатные фильмы, а также новинки кино. Все это бесплатно и без смс.