Cкачать бесплатно фильмы.
Поиск фильмов
Log Pass забыли?
  Бесплатные фильмы
Скачать Человек-волк , The Wolfman [x264] [2010 | BDRip]
КатегорияУжасы / Драма / Триллер
Похожие фильмы



Похожие онлайн фильмы
Постер фильма Человек-волк , The Wolfman [x264] [2010 | BDRip]
Человек-волк , The Wolfman [x264] [2010 | BDRip]

Трэйлер


ZPieOzIA7NM&feature=player_embedded

Обзор



Название: Человек-волк
Оригинальное название: The Wolfman
Год выхода: 2010
Cтрана: США
Режиссер: Джо Джонстон
Cценарий: Эндрю Кевин Уокер, Дэвид Селф, Курт Сьодмак
В ролях: Бенисио Дель Торо, Энтони Хопкинс, Эмили Блант, Хьюго Уивинг, Саймон Мерреллс, Джемма Уилан, Марио Марин-Борке,с Аса Баттерфилд, Кристина Контес, Арт Малик
Продолжительность: 01:42:18
Язык: Русский Профессиональный (Полное дублирование) | Лицензия
Звук с лицензии: CEE

О фильме:

«Бойся полной Луны»

Эта история разворачивается в Великобритании. Герой возвращается на Родину из Америки для того, чтобы найти без вести пропавшего брата. До него доходят слухи о том, что в предмеcтьях города обитает страшное существо, которое разрывает на части жителей окрестных деревень. Дело расследует полиция Скотланд-Ярда, вскоре их заинтересовывает джентльмен, приехавший на поиски брата.


http://zamolxismd.org/m/iceimg.com/i/ce/f6/0c1709f25c.pnghttp://zamolxismd.org/m/iceimg.com/i/0a/1a/9209382e99.png
http://zamolxismd.org/m/iceimg.com/i/66/4f/438a4f1ff0.pnghttp://zamolxismd.org/m/iceimg.com/i/77/ef/0633706de1.png
http://zamolxismd.org/m/iceimg.com/i/69/31/8cd1e5407c.pnghttp://zamolxismd.org/m/iceimg.com/i/12/bc/d376940e60.png
http://zamolxismd.org/m/iceimg.com/i/b5/ba/3847175f03.pnghttp://zamolxismd.org/m/iceimg.com/i/ae/a6/6dc5c960ac.png

MediaInfo писал
Полное имя                      : D:VideoripXviD Relizx264The.Wolfman.Theatrical.cut.2010.1400MB.BDRip.x264.mkv
Формат                          : Matroska
Версия формата                  : Version 2
Размер файла                    : 1,37 Гбайт
Продолжительность                : 1 ч. 42 м.
Общий поток                      : 1911 Кбит/сек
Дата кодирования                : UTC 2012-01-11 16:49:25
Программа кодирования            : mkvmerge v4.9.1 ('Ich will') built on Jul 11 2011 23:53:15
Библиотека кодирования          : libebml v1.2.1 + libmatroska v1.1.1

Видео
Идентификатор                    : 1
Формат                          : AVC
Формат/Информация                : Advanced Video Codec
Профиль формата                  : High@L4.1
Параметр CABAC формата          : Да
Параметр ReFrames формата        : 10 кадров
Идентификатор кодека            : V_MPEG4/ISO/AVC
Продолжительность                : 1 ч. 42 м.
Битрейт                          : 1461 Кбит/сек
Ширина                          : 720 пикселей
Высота                          : 384 пикселя
Соотношение сторон              : 1,875
Частота кадров                  : 23,976 кадра/сек
Цветовое пространство            : YUV
Субдискретизация насыщенности    : 4:2:0
Битовая глубина                  : 8 бит
Тип развёртки                    : Прогрессивная
Бит/(Пиксели*Кадры)              : 0.220
Размер потока                    : 1,02 Гбайт (75%)
Библиотека кодирования          : x264 core 116 r2074 2641b9e
Настройки программы              : cabac=1 / ref=10 / deblock=1:-3:-3 / analyse=0x3:0x113 / me=umh / subme=7 / psy=1 / psy_rd=1.00:0.00 / mixed_ref=1 / me_range=16 / chroma_me=1 / trellis=1 / 8x8dct=1 / cqm=0 / deadzone=21,11 / fast_pskip=1 / chroma_qp_offset=-2 / threads=6 / sliced_threads=0 / nr=0 / decimate=1 / interlaced=0 / bluray_compat=0 / constrained_intra=0 / bframes=6 / b_pyramid=2 / b_adapt=1 / b_bias=0 / direct=1 / weightb=1 / open_gop=0 / weightp=2 / keyint=250 / keyint_min=23 / scenecut=40 / intra_refresh=0 / rc_lookahead=40 / rc=2pass / mbtree=1 / bitrate=1461 / ratetol=1.0 / qcomp=0.60 / qpmin=0 / qpmax=69 / qpstep=4 / cplxblur=20.0 / qblur=0.5 / ip_ratio=1.40 / aq=1:1.00
Default                          : Да
Forced                          : Нет

Аудио
Идентификатор                    : 2
Формат                          : AC-3
Формат/Информация                : Audio Coding 3
Расширение режима                : CM (complete main)
Идентификатор кодека            : A_AC3
Продолжительность                : 1 ч. 42 м.
Вид битрейта                    : Постоянный
Битрейт                          : 448 Кбит/сек
Каналы                          : 6 каналов
Расположение каналов            : Front: L C R, Side: L R, LFE
Частота                          : 48,0 КГц
Битовая глубина                  : 16 бит
Метод сжатия                    : С потерями
Размер потока                    : 328 Мбайт (23%)
Default                          : Да
Forced                          : Нет


Пожалуйста не забывайте нажимать СПАСИБО - автору приятно и полезно!




ФАЙЛ
Качество: BDRip
Видео: AVC, 720x384 (1.875), 23.976 fps, 1 461 Kbps (0.220 bit/pixel)
Звук: AC-3, 48.0 KHz, 6 ch, 448 Kbps, CBR
Размер1.37 GB (1,466,068,463 байт)
Скачать Человек-волк , The Wolfman [x264] [2010 | BDRip]

:: ОТЗЫВЫ


button_offline Отзыв от weker
avatar 699752

оооооооооо поглядим)))))

button_offline Отзыв от dreamer38
avatar 228258

Как-то я его пропустил. Благодарю. :-)

button_offline Отзыв от starser79
avatar 450541

отлично оформленная раздача и фильм зачЁтный

button_offline Отзыв от egik333
avatar 749985

Ентони Хопкинс - молодчага ! Классно сыграл !!!

РЕГИСТРАЦИЯ.

Смотрите бесплатное порно или эротику

footerLeft
Информация для правообладателей На ёгли вы скачаете порно, бесплатные фильмы, а также новинки кино. Все это бесплатно и без смс.