Cкачать бесплатно фильмы.
Поиск фильмов
Log Pass забыли?
  Бесплатные фильмы
Скачать Черным дают с черного хода - Mischa Brooks, Valentina Nappi
КатегорияОргия / Анал / Межрассовое
Похожие фильмы



Похожие онлайн фильмы
Постер фильма Черным дают с черного хода - Mischa Brooks, Valentina Nappi
Черным дают с черного хода - Mischa Brooks, Valentina Nappi

Обзор



Шалав в жопы ебут негры


General
Complete name                            : C:UsersUserDownloadsMischa Brooks, Valentina Nappi.mp4
Format                                   : MPEG-4
Format profile                           : Base Media
Codec ID                                 : isom
File size                                : 231 MiB
Duration                                 : 32mn 41s
Overall bit rate mode                    : Variable
Overall bit rate                         : 986 Kbps
Writing application                      : Lavf55.48.100

Video
ID                                       : 1
Format                                   : AVC
Format/Info                              : Advanced Video Codec
Format profile                           : Baseline@L3.0
Format settings, CABAC                   : No
Format settings, ReFrames                : 3 frames
Codec ID                                 : avc1
Codec ID/Info                            : Advanced Video Coding
Duration                                 : 32mn 41s
Bit rate                                 : 880 Kbps
Width                                    : 854 pixels
Height                                   : 480 pixels
Display aspect ratio                     : 16:9
Frame rate mode                          : Constant
Frame rate                               : 25.000 fps
Color space                              : YUV
Chroma subsampling                       : 4:2:0
Bit depth                                : 8 bits
Scan type                                : Progressive
Bits/(Pixel*Frame)                       : 0.086
Stream size                              : 206 MiB (89%)
Writing library                          : x264 core 142
Encoding settings                        : cabac=0 / ref=3 / deblock=1:0:0 / analyse=0x1:0x111 / me=hex / subme=7 / psy=1 / psy_rd=1.00:0.00 / mixed_ref=1 / me_range=16 / chroma_me=1 / trellis=1 / 8x8dct=0 / cqm=0 / deadzone=21,11 / fast_pskip=1 / chroma_qp_offset=-2 / threads=8 / lookahead_threads=1 / sliced_threads=0 / nr=0 / decimate=1 / interlaced=0 / bluray_compat=0 / constrained_intra=0 / bframes=0 / weightp=0 / keyint=250 / keyint_min=25 / scenecut=40 / intra_refresh=0 / rc_lookahead=40 / rc=2pass / mbtree=1 / bitrate=880 / ratetol=1.0 / qcomp=0.60 / qpmin=0 / qpmax=69 / qpstep=4 / cplxblur=20.0 / qblur=0.5 / ip_ratio=1.40 / aq=1:1.00

Audio
ID                                       : 2
Format                                   : AAC
Format/Info                              : Advanced Audio Codec
Format profile                           : LC
Codec ID                                 : 40
Duration                                 : 32mn 41s
Duration_LastFrame                       : -19ms
Bit rate mode                            : Variable
Bit rate                                 : 101 Kbps
Maximum bit rate                         : 160 Kbps
Channel(s)                               : 2 channels
Channel positions                        : Front: L R
Sampling rate                            : 44.1 KHz
Compression mode                         : Lossy
Stream size                              : 23.6 MiB (10%)


http://i73.fastpic.ru/big/2015/1128/eb/92e1ce75178a17b44397c765d24957eb.gif http://i74.fastpic.ru/big/2015/1128/14/fe5efc0597e529d63845d8514c972514.gif
http://i75.fastpic.ru/big/2015/1128/1a/650f17cd679789e5520cc85c6864ac1a.gif


http://i76.fastpic.ru/big/2015/1128/ef/dc8d1999ae44c3f333b741714e7a20ef.jpg
Размер230.56 MB (241,761,044 байт)
Скачать Черным дают с черного хода - Mischa Brooks, Valentina Nappi

:: ОТЗЫВЫ


button_offline Отзыв от joker7777
avatar 316995

Цитата
Шалав в жопы ебут негры


Собственно в гудок пялят только вальку..  8-)

РЕГИСТРАЦИЯ.

Смотрите бесплатное порно или эротику

footerLeft
Информация для правообладателей На ёгли вы скачаете порно, бесплатные фильмы, а также новинки кино. Все это бесплатно и без смс.