Cкачать бесплатно фильмы.
Поиск фильмов
Log Pass забыли?
  Бесплатные фильмы
Скачать Шальные бабенки - Phoenix Marie, Jessica Jaymes, Romi Rain
КатегорияОргия / Зрелые / Груди
Похожие фильмы



Похожие онлайн фильмы
Постер фильма Шальные бабенки - Phoenix Marie, Jessica Jaymes, Romi Rain
Шальные бабенки - Phoenix Marie, Jessica Jaymes, Romi Rain

Обзор



Три проститутки трахают парня


General
Complete name                            : C:UsersUserDownloadsPhoenix Marie, Jessica Jaymes, Romi Rain.mp4
Format                                   : MPEG-4
Format profile                           : Base Media
Codec ID                                 : isom
File size                                : 410 MiB
Duration                                 : 37mn 50s
Overall bit rate mode                    : Variable
Overall bit rate                         : 1 513 Kbps
Encoded date                             : UTC 2013-07-11 18:55:53
Tagged date                              : UTC 2013-07-11 18:55:53
Writing application                      : Lavf53.32.100

Video
ID                                       : 1
Format                                   : AVC
Format/Info                              : Advanced Video Codec
Format profile                           : High@L3.0
Format settings, CABAC                   : Yes
Format settings, ReFrames                : 4 frames
Codec ID                                 : avc1
Codec ID/Info                            : Advanced Video Coding
Duration                                 : 37mn 50s
Bit rate                                 : 1 400 Kbps
Width                                    : 854 pixels
Height                                   : 480 pixels
Display aspect ratio                     : 16:9
Frame rate mode                          : Constant
Frame rate                               : 30.000 fps
Color space                              : YUV
Chroma subsampling                       : 4:2:0
Bit depth                                : 8 bits
Scan type                                : Progressive
Bits/(Pixel*Frame)                       : 0.114
Stream size                              : 379 MiB (92%)
Writing library                          : x264 core 120
Encoding settings                        : cabac=1 / ref=4 / deblock=1:0:0 / analyse=0x3:0x113 / me=umh / subme=7 / psy=0 / mixed_ref=1 / me_range=16 / chroma_me=1 / trellis=1 / 8x8dct=1 / cqm=0 / deadzone=21,11 / fast_pskip=0 / chroma_qp_offset=0 / threads=48 / sliced_threads=0 / nr=0 / decimate=1 / interlaced=0 / bluray_compat=0 / constrained_intra=0 / bframes=16 / b_pyramid=2 / b_adapt=1 / b_bias=0 / direct=3 / weightb=1 / open_gop=0 / weightp=2 / keyint=300 / keyint_min=25 / scenecut=40 / intra_refresh=0 / rc=2pass / mbtree=0 / bitrate=1400 / ratetol=1.0 / qcomp=0.60 / qpmin=10 / qpmax=51 / qpstep=4 / cplxblur=20.0 / qblur=0.5 / ip_ratio=1.40 / pb_ratio=1.30 / aq=1:1.00
Language                                 : English
Encoded date                             : UTC 2013-07-11 18:55:53
Tagged date                              : UTC 2013-07-11 18:55:53

Audio
ID                                       : 2
Format                                   : AAC
Format/Info                              : Advanced Audio Codec
Format profile                           : LC
Codec ID                                 : 40
Duration                                 : 37mn 50s
Bit rate mode                            : Variable
Bit rate                                 : 106 Kbps
Maximum bit rate                         : 128 Kbps
Channel(s)                               : 2 channels
Channel positions                        : Front: L R
Sampling rate                            : 44.1 KHz
Compression mode                         : Lossy
Stream size                              : 28.7 MiB (7%)
Language                                 : English
Encoded date                             : UTC 2013-07-11 18:55:53
Tagged date                              : UTC 2013-07-11 18:55:53


http://i66.fastpic.ru/big/2015/1124/d5/85288fde4bad3fd8dfde5452360551d5.gif http://i74.fastpic.ru/big/2015/1124/76/c0bafbfbcebd19849d8b26bfc89e6976.gif
http://i65.fastpic.ru/big/2015/1124/5d/afe66ab1535bad8ad1fde109355aa05d.gif http://i66.fastpic.ru/big/2015/1124/e1/16a30fe093eae6d30eb813d9232676e1.gif
http://i74.fastpic.ru/big/2015/1124/8c/48aff2d7990c15289360faeb3fe0a18c.gif http://i65.fastpic.ru/big/2015/1124/dd/cba80cabd5693b65c20986e75f6584dd.gif


http://i74.fastpic.ru/big/2015/1125/4f/fa72b0ae7f17b1a9a8ece7df18afb64f.jpg
Размер409.61 MB (429,512,204 байт)
Скачать Шальные бабенки - Phoenix Marie, Jessica Jaymes, Romi Rain

:: Отзывы



Отзывы отсутствуют.

 :: Отзывов нет
РЕГИСТРАЦИЯ.

Смотрите бесплатное порно или эротику

footerLeft
Информация для правообладателей На ёгли вы скачаете порно, бесплатные фильмы, а также новинки кино. Все это бесплатно и без смс.