Cкачать бесплатно фильмы.
Поиск фильмов
Log Pass забыли?
  Бесплатные фильмы
Скачать Шлюха решилась на гэнг-бэнг - Diamond Foxxx (Diamond s Bday Gangbang)
КатегорияОргия / Жёсткое / Зрелые / Анал / Груди
Похожие фильмы



Похожие онлайн фильмы
Постер фильма Шлюха решилась на гэнг-бэнг - Diamond Foxxx (Diamond s Bday Gangbang)
Шлюха решилась на гэнг-бэнг - Diamond Foxxx (Diamond s Bday Gangbang)

Обзор



Зрелую порно-проститутку первый раз ебут толпой


General
Complete name                            : C:UsersUserDownloadsDiamond's Bday Gangbang.mp4
Format                                   : MPEG-4
Format profile                           : Base Media / Version 2
Codec ID                                 : mp42
File size                                : 3.18 GiB
Duration                                 : 2h 28mn
Overall bit rate mode                    : Variable
Overall bit rate                         : 3 057 Kbps
Encoded date                             : UTC 2015-11-22 00:29:32
Tagged date                              : UTC 2015-11-22 00:29:32
gsst                                     : 0
gstd                                     : 8927050
gssd                                     : BADC29586
gshh                                     : r6---sn-n8v7snel.googlevideo.com

Video
ID                                       : 1
Format                                   : AVC
Format/Info                              : Advanced Video Codec
Format profile                           : High@L3.1
Format settings, CABAC                   : Yes
Format settings, ReFrames                : 1 frame
Codec ID                                 : avc1
Codec ID/Info                            : Advanced Video Coding
Duration                                 : 2h 28mn
Bit rate                                 : 2 862 Kbps
Maximum bit rate                         : 12.8 Mbps
Width                                    : 1 280 pixels
Height                                   : 720 pixels
Display aspect ratio                     : 16:9
Frame rate mode                          : Constant
Frame rate                               : 25.000 fps
Color space                              : YUV
Chroma subsampling                       : 4:2:0
Bit depth                                : 8 bits
Scan type                                : Progressive
Bits/(Pixel*Frame)                       : 0.124
Stream size                              : 2.97 GiB (94%)
Tagged date                              : UTC 2015-11-22 01:43:59

Audio
ID                                       : 2
Format                                   : AAC
Format/Info                              : Advanced Audio Codec
Format profile                           : LC
Codec ID                                 : 40
Duration                                 : 2h 28mn
Bit rate mode                            : Variable
Bit rate                                 : 192 Kbps
Maximum bit rate                         : 203 Kbps
Channel(s)                               : 2 channels
Channel positions                        : Front: L R
Sampling rate                            : 44.1 KHz
Compression mode                         : Lossy
Stream size                              : 204 MiB (6%)
Title                                    : IsoMedia File Produced by Google, 5-11-2011
Encoded date                             : UTC 2015-11-22 01:19:54
Tagged date                              : UTC 2015-11-22 01:43:59


http://i66.fastpic.ru/big/2015/1124/05/2b6ac09a6af55382de2a3cf1b34ac805.gif http://i67.fastpic.ru/big/2015/1124/d1/509317d0f92edde2ab2da7a2cdd15cd1.gif
http://i66.fastpic.ru/big/2015/1124/c4/0ca8755c9858fab7032ae9853b1601c4.gif http://i76.fastpic.ru/big/2015/1124/92/573c2e1324b1b98794a17111afe7ea92.gif


http://i66.fastpic.ru/big/2015/1125/4f/d5d06ce47b48c206e3ba7656d542274f.jpg
Размер3.18 GB (3,410,996,721 байт)
Скачать Шлюха решилась на гэнг-бэнг - Diamond Foxxx (Diamond s Bday Gangbang)

:: ОТЗЫВЫ


button_offline Отзыв от Gennady
avatar 3799

[sergej700] перезалил скрины, попутал просто ролики, ее дуплят же неединожды. надо кстати перекачать торрент-файл

button_offline Отзыв от sergej700
avatar 369212

Почему разные  скрины???????

РЕГИСТРАЦИЯ.

Смотрите бесплатное порно или эротику

footerLeft
Информация для правообладателей На ёгли вы скачаете порно, бесплатные фильмы, а также новинки кино. Все это бесплатно и без смс.