Cкачать бесплатно фильмы.
Поиск фильмов
Log Pass забыли?
  Бесплатные фильмы
Скачать Эффект бабочки , The Butterfly Effect [Theatrical Cut] 720p [2004 | HDTV]
КатегорияТриллер
Похожие фильмы



Похожие онлайн фильмы
Постер фильма Эффект бабочки , The Butterfly Effect [Theatrical Cut] 720p [2004 | HDTV]
Эффект бабочки  , The Butterfly Effect [Theatrical Cut] 720p [2004 | HDTV]
Фото фильма Эффект бабочки , The Butterfly Effect [Theatrical Cut] 720p [2004 | HDTV]
Эффект бабочки  , The Butterfly Effect [Theatrical Cut] 720p [2004 | HDTV]

Трэйлер


4hrV9xt50Vc&feature=player_embedded

Обзор



Название: Эффект бабочки  
Оригинальное название: The Butterfly Effect [Theatrical Cut] 720p
Год выхода: 2004
Режиссер: Eric Bress, J. Mackye Gruber
В ролях: Эштон Катчер, Эми Смарт, Мелора Уолтерс, Элден Хенсон, Уильям Ли Скотт, Джон Патрик Амедори, Ирен Горовая, Кевин Шмидт, Джесси Джеймс, Логан Лерман
Продолжительность: 01:53:31
Язык: Русский Профессиональный (полное дублирование)

О фильме:

http://t.imgbox.com/aawLELPe.jpg


«Изменишь одно, изменится все»

Мальчик Эван перенял от своего отца-психопата, ныне запертого в доме для умалишённых, странную болезнь - он не помнит некоторых эпизодов своей жизни, причем в эти моменты происходили довольно странные, а то и ужасные, события. Возмужав и поступив в колледж, Эван делает удивительное открытие. Читая дневники, которые он писал в детстве по совету врача, Эван может возвращаться в детство и своими действиями изменять будущее.


http://s017.radikal.ru/i400/1112/a8/ff76ca9353fe.gif


http://t.imgbox.com/aavZceIg.jpg http://t.imgbox.com/aazwrtW2.jpg http://t.imgbox.com/aaivKsMQ.jpg http://t.imgbox.com/aasL93a0.jpg http://t.imgbox.com/aaxAViwZ.jpg http://t.imgbox.com/aaecys9R.jpg http://t.imgbox.com/aazp6K7h.jpg http://t.imgbox.com/aax78T6S.jpg


INFO AUDIO!

Audio #1
ID                                      : 2
Format                                  : AC-3
Format/Info                              : Audio Coding 3
Mode extension                          : CM (complete main)
Codec ID                                : A_AC3
Duration                                : 1h 53mn
Bit rate mode                            : Constant
Bit rate                                : 384 Kbps
Channel(s)                              : 6 channels
Channel positions                        : Front: L C R, Side: L R, LFE
Sampling rate                            : 48.0 KHz
Bit depth                                : 16 bits
Compression mode                        : Lossy
Stream size                              : 312 MiB (3%)
Title                                    : AC3 5.1 @ 384 kbps – Дубляж (R5)
Language                                : Russian
Default                                  : Yes
Forced                                  : No

Audio #2
ID                                      : 3
Format                                  : DTS
Format/Info                              : Digital Theater Systems
Codec ID                                : A_DTS
Duration                                : 1h 53mn
Bit rate mode                            : Constant
Bit rate                                : 1 510 Kbps
Channel(s)                              : 6 channels
Channel positions                        : Front: L C R, Side: L R, LFE
Sampling rate                            : 48.0 KHz
Bit depth                                : 16 bits
Compression mode                        : Lossy
Stream size                              : 1.20 GiB (13%)
Title                                    : DTS 5.1 @ 1536 kbps – Одноголосый закадровый (А.Дасевич)
Language                                : Russian
Default                                  : No
Forced                                  : No

Audio #3
ID                                      : 4
Format                                  : DTS
Format/Info                              : Digital Theater Systems
Codec ID                                : A_DTS
Duration                                : 1h 53mn
Bit rate mode                            : Constant
Bit rate                                : 1 510 Kbps
Channel(s)                              : 6 channels
Channel positions                        : Front: L C R, Side: L R, LFE
Sampling rate                            : 48.0 KHz
Bit depth                                : 16 bits
Compression mode                        : Lossy
Stream size                              : 1.20 GiB (13%)
Title                                    : DTS 5.1 @ 1536 kbps
Language                                : English
Default                                  : No
Forced                                  : No

Audio #4
ID                                      : 5
Format                                  : AC-3
Format/Info                              : Audio Coding 3
Mode extension                          : CM (complete main)
Codec ID                                : A_AC3
Duration                                : 1h 53mn
Bit rate mode                            : Constant
Bit rate                                : 192 Kbps
Channel(s)                              : 2 channels
Channel positions                        : Front: L R
Sampling rate                            : 48.0 KHz
Bit depth                                : 16 bits
Compression mode                        : Lossy
Stream size                              : 156 MiB (2%)
Title                                    : AC3 2.0 @ 192 kbps – Commentary
Language                                : English
Default                                  : No
Forced                                  : No


http://s42.radikal.ru/i095/1112/79/d1d67ef78403.gif


http://s011.radikal.ru/i318/1112/05/36b3cd8cfa48.png  


ФАЙЛ
Качество: HDTV
Видео: 1280x720p at 23.976 fps, x264, crf, ~7656 kbps avg
Звук: Аудио#1: Russian: 48 kHz, AC3, 3/2 (L,C,R,l,r) + LFE ch, ~384.00 kbps avg |R5, Дубляж| Аудио#2: Russian: 48 kHz/16-bit, DTS 5.1, ~1536.00 kbps avg|Одноголосый закадровый, А. Дасевич| Аудио#3: English: 48 kHz/16-bit, DTS 5.1, ~1536.00 kbps avg Аудио#4: English: 48 kHz, AC3, 2/0 (L,R) ch, ~192.00 kbps avg |Commentary|
Размер8.93 GB (9,583,393,705 байт)
Скачать Эффект бабочки , The Butterfly Effect [Theatrical Cut] 720p [2004 | HDTV]

:: ОТЗЫВЫ


button_offline Отзыв от WoFFFka
avatar 621099

Спасибо! Давно хотел посмотреть этот фильм!

РЕГИСТРАЦИЯ.

Смотрите бесплатное порно или эротику

footerLeft
Информация для правообладателей На ёгли вы скачаете порно, бесплатные фильмы, а также новинки кино. Все это бесплатно и без смс.