Cкачать бесплатно фильмы.
Поиск фильмов
Log Pass забыли?
  Бесплатные фильмы
Скачать Я люблю сексуальную маму - I Love Your Sexxxy Mom Ava Divine
КатегорияЗрелые / Анал
Похожие фильмы



Похожие онлайн фильмы
Постер фильма Я люблю сексуальную маму - I Love Your Sexxxy Mom Ava Divine
Я люблю сексуальную маму   - I Love Your Sexxxy Mom Ava Divine
Фото фильма Я люблю сексуальную маму - I Love Your Sexxxy Mom Ava Divine
Я люблю сексуальную маму   - I Love Your Sexxxy Mom Ava Divine

Обзор



Ава Дивайн еще та сучка!




File size                        : 109 MiB
Duration                         : 20mn 7s
Overall bit rate mode            : Variable
Overall bit rate                 : 757 Kbps
Maximum Overall bit rate         : 1 113 Kbps
Movie name                       : I LOVE YOUR SEXXXY MOM
Encoded date                     : UTC 2008-06-10 20:58:36.135

Video
ID                               : 2
Format                           : WMV2
Codec ID                         : WMV2
Codec ID/Info                    : Windows Media Video 8
Duration                         : 20mn 6s
Bit rate mode                    : Variable
Bit rate                         : 593 Kbps
Width                            : 480 pixels
Height                           : 352 pixels
Display aspect ratio             : 4:3
Frame rate                       : 29.970 fps
Resolution                       : 24 bits
Bits/(Pixel*Frame)               : 0.117
Stream size                      : 85.3 MiB (78%)
Language                         : English (US)

Audio
ID                               : 1
Format                           : WMA
Format version                   : Version 2
Codec ID                         : 161
Codec ID/Info                    : Windows Media Audio
Duration                         : 20mn 7s
Bit rate mode                    : Constant
Bit rate                         : 64.0 Kbps
Channel(s)                       : 2 channels
Sampling rate                    : 44.1 KHz
Resolution                       : 16 bits
Stream size                      : 9.22 MiB (8%)
Language                         : English (US)

Размер109.02 MB (114,316,470 байт)
Скачать Я люблю сексуальную маму - I Love Your Sexxxy Mom Ava Divine

:: ОТЗЫВЫ


button_offline Отзыв от baldas
avatar 759421

спасибо :w00t: :w00t: :w00t: :w00t: :w00t:

button_offline Отзыв от Faer
avatar 228313

где раздача :?: :?: :?:

РЕГИСТРАЦИЯ.

Смотрите бесплатное порно или эротику

footerLeft
Информация для правообладателей На ёгли вы скачаете порно, бесплатные фильмы, а также новинки кино. Все это бесплатно и без смс.