Cкачать бесплатно фильмы.
Поиск фильмов
Log Pass забыли?
  Бесплатные фильмы
Скачать две жопы в масле - Holly Halston - Hot Ass Oil Party !
КатегорияАнал / Зрелые / Груди
Похожие фильмы



Похожие онлайн фильмы
Постер фильма две жопы в масле - Holly Halston - Hot Ass Oil Party !
две жопы в масле - Holly Halston - Hot Ass Oil Party !

Обзор



Две шлюхи притираются друг к друге жопами, а после одну из них ебут в анал

http://thumbnails116.imagebam.com/50712/1f7773507115197.jpg http://thumbnails115.imagebam.com/50712/a824da507115198.jpg http://thumbnails115.imagebam.com/50712/372662507115199.jpg http://thumbnails116.imagebam.com/50712/2ec284507115200.jpg http://thumbnails116.imagebam.com/50712/2ec284507115201.jpg http://thumbnails115.imagebam.com/50712/c497c6507115202.jpg http://thumbnails115.imagebam.com/50712/c0e782507115203.jpg http://thumbnails115.imagebam.com/50712/33932b507115204.jpg

General
Complete name                  : C:UsersUserDownloadsAvsPhelpHolly Halston - Hot Ass Oil Party !.mp4
Format                         : MPEG-4
Format profile                 : Sony PSP
Codec ID                       : MSNV
File size                      : 1.83 GiB
Duration                       : 29mn 4s
Overall bit rate mode          : Variable
Overall bit rate               : 9 028 Kbps
Encoded date                   : UTC 2016-09-29 17:18:21
Tagged date                    : UTC 2016-09-29 17:18:21

Video
ID                             : 1
Format                         : AVC
Format/Info                    : Advanced Video Codec
Format profile                 : Main@L3.1
Format settings, CABAC         : Yes
Format settings, ReFrames      : 2 frames
Codec ID                       : avc1
Codec ID/Info                  : Advanced Video Coding
Duration                       : 29mn 4s
Source duration                : 29mn 4s
Bit rate mode                  : Variable
Bit rate                       : 8 479 Kbps
Maximum bit rate               : 12.0 Mbps
Width                          : 1 280 pixels
Height                         : 720 pixels
Display aspect ratio           : 16:9
Frame rate mode                : Constant
Frame rate                     : 25.000 fps
Color space                    : YUV
Chroma subsampling             : 4:2:0
Bit depth                      : 8 bits
Scan type                      : Progressive
Bits/(Pixel*Frame)             : 0.368
Stream size                    : 1.72 GiB (94%)
Source stream size             : 1.80 GiB (98%)
Language                       : English
Encoded date                   : UTC 2016-09-29 17:18:21
Tagged date                    : UTC 2016-09-29 17:18:21
mdhd_Duration                  : 1744400

Audio
ID                             : 2
Format                         : AAC
Format/Info                    : Advanced Audio Codec
Format profile                 : LC
Codec ID                       : 40
Duration                       : 29mn 4s
Source duration                : 29mn 4s
Bit rate mode                  : Constant
Bit rate                       : 183 Kbps
Nominal bit rate               : 192 Kbps
Channel(s)                     : 2 channels
Channel positions              : Front: L R
Sampling rate                  : 48.0 KHz
Compression mode               : Lossy
Stream size                    : 38.0 MiB (2%)
Source stream size             : 38.0 MiB (2%)
Language                       : English
Encoded date                   : UTC 2016-09-29 17:18:21
Размер1.83 GB (1,968,484,717 байт)
Скачать две жопы в масле - Holly Halston - Hot Ass Oil Party !

:: ОТЗЫВЫ


button_offline Отзыв от vetmal
avatar 761400

какое-то левое видео :shit:

button_offline Отзыв от andrew51
avatar 680149

Автор пидарас полный. Рекламу гавносайта запилил в которой старушка 30 минут дрочит резиновый член. :shit: :shit: :shit: :shit: :shit: :shit:

РЕГИСТРАЦИЯ.

Смотрите бесплатное порно или эротику

footerLeft
Информация для правообладателей На ёгли вы скачаете порно, бесплатные фильмы, а также новинки кино. Все это бесплатно и без смс.